<?xml version="1.0" standalone="no"?>
<!DOCTYPE svg PUBLIC "-//W3C//DTD SVG 1.1//EN" "http://www.w3.org/Graphics/SVG/1.1/DTD/svg11.dtd" >
<svg>
<metadata>
Created by FontForge 20090914 at Wed Sep 30 21:18:25 2015
 By www-data
Copyright 1990-1993 Bitstream Inc.  All rights reserved.
</metadata>
<defs>
<font id="Square721BT-Roman" horiz-adv-x="1157" >
  <font-face 
    font-family="Square721 BT"
    font-weight="400"
    font-stretch="normal"
    units-per-em="2048"
    panose-1="2 11 5 4 2 2 2 6 2 4"
    ascent="1638"
    descent="-410"
    x-height="1053"
    cap-height="1489"
    bbox="-342 -483 2662 2028"
    underline-thickness="104"
    underline-position="-149"
    unicode-range="U+0020-U+F002"
  />
<missing-glyph horiz-adv-x="1229" 
d="M102 -362v1806h1024v-1806h-1024zM217 -248h795v1577h-795v-1577z" />
    <glyph glyph-name=".notdef" horiz-adv-x="1229" 
d="M102 -362v1806h1024v-1806h-1024zM217 -248h795v1577h-795v-1577z" />
    <glyph glyph-name="space" unicode=" " horiz-adv-x="692" 
 />
    <glyph glyph-name="exclam" unicode="!" horiz-adv-x="516" 
d="M190 399l-10 1090h156l-8 -1090h-138zM180 0v193h156v-193h-156z" />
    <glyph glyph-name="quotedbl" unicode="&#x22;" horiz-adv-x="569" 
d="M473 1434v-553h-102v553h102zM199 1434v-553h-101v553h101z" />
    <glyph glyph-name="numbersign" unicode="#" horiz-adv-x="1575" 
d="M975 864h-266l-97 -276h267zM918 1454l-168 -483h264l172 483h127l-170 -483h315l-37 -107h-317l-98 -276h340l-37 -109h-340l-170 -479h-129l172 479h-269l-172 -479h-127l170 479h-327l39 109h325l101 276h-353l35 107h354l173 483h127z" />
    <glyph glyph-name="dollar" unicode="$" horiz-adv-x="1384" 
d="M629 1354h-42.999c-106.667 0 -178.834 -18.5 -216.501 -55.5s-56.5 -109.5 -56.5 -217.5c0 -88.667 19.333 -148.167 58 -178.5s124.667 -49.833 258 -58.5v510zM772.001 133l39.001 0.00195312c107.333 0 180.166 20 218.499 60s57.5 117.667 57.5 233
c0 97.333 -21.167 163.166 -63.5 197.499s-125.833 53.166 -250.5 56.499zM137.002 485.002l156.003 0.000976562c0 -7.33301 -0.333008 -18.333 -1 -33s-1 -25.334 -1 -32.001c0 -110 18.5 -184.667 55.5 -224s106.5 -59 208.5 -59c19.333 0 34 0.166992 44 0.5
s19.667 0.833008 29 1.5v547c-180 2 -304 31.833 -372 89.5s-102 159.5 -102 305.5c0 152.667 31.667 262.167 95 328.5s168 99.5 314 99.5c17.333 0 30.666 -0.166992 39.999 -0.5s18 -0.5 26 -0.5v104h143v-105h41c148.667 0 255.5 -27.5 320.5 -82.5
s97.5 -145.5 97.5 -271.5c0 -9.33301 -0.333008 -19.833 -1 -31.5s-2 -29.167 -4 -52.5h-156c0 7.33301 0.166992 15.666 0.5 24.999s0.5 22.333 0.5 39c0 84.667 -18.333 142 -55 172s-108.334 45 -215.001 45h-29v-512c182 -4.66699 306.667 -36 374 -94
s101 -162 101 -312c0 -162.667 -31.333 -279.5 -94 -350.5s-165.667 -106.5 -309 -106.5c-19.333 0 -34 0.166992 -44 0.5s-19.333 0.833008 -28 1.5v-96h-143v96c-6.66699 0 -16.334 -0.333008 -29.001 -1s-21.667 -1 -27 -1c-154.667 0 -266.667 33 -336 99
s-104 173 -104 321c0 16.667 1.33301 43.334 4 80.001v10z" />
    <glyph glyph-name="percent" unicode="%" horiz-adv-x="1858" 
d="M594 -18l526 1525h142l-527 -1525h-141zM387 690h74.001c74 0 122.5 12.333 145.5 37s34.5 84 34.5 178v252c0 94.667 -11.833 154.5 -35.5 179.5s-71.834 37.5 -144.501 37.5h-74c-73.333 0 -122 -12.667 -146 -38s-36 -85 -36 -179v-252
c0 -93.333 11.5 -152.5 34.5 -177.5s72.167 -37.5 147.5 -37.5zM1399 117h71.001c75.333 0 124.666 12.5 147.999 37.5s35 84.167 35 177.5v252c0 94 -12 153.667 -36 179s-73 38 -147 38h-71c-73.333 0 -122 -12.667 -146 -38s-36 -85 -36 -179v-252
c0 -93.333 11.5 -152.5 34.5 -177.5s72.167 -37.5 147.5 -37.5zM379.002 555c-114 0 -193.335 23.333 -238.002 70s-67 129 -67 247v316c0 118.667 22.667 201.5 68 248.5s124.333 70.5 237 70.5h90c112.667 0 191.334 -23.167 236.001 -69.5s67 -129.5 67 -249.5v-316
c0 -120 -22.167 -202.833 -66.5 -248.5s-123.166 -68.5 -236.499 -68.5h-90zM1389 -18c-113.333 0 -192.333 23.333 -237 70s-67 129.667 -67 249v313c0 119.333 22.5 202.5 67.5 249.5s123.833 70.5 236.5 70.5h90c112.667 0 191.667 -23.333 237 -70s68 -130 68 -250v-313
c0 -120 -22.5 -203.167 -67.5 -249.5s-124.167 -69.5 -237.5 -69.5h-90z" />
    <glyph glyph-name="ampersand" unicode="&#x26;" horiz-adv-x="1489" 
d="M1073 299l-547.998 457.999c-90.667 -1.33301 -153.667 -23.166 -189 -65.499s-53 -122.5 -53 -240.5c0 -83.333 4.5 -142.666 13.5 -177.999s24.167 -62 45.5 -80c23.333 -20.667 60.166 -35.167 110.499 -43.5s141.166 -12.5 272.499 -12.5
c108.667 0 190 12.667 244 38s88.667 66.666 104 123.999zM1208 183.999c-34 -76 -89.3359 -129.001 -166.003 -159.001s-211.667 -45 -405 -45c-137.333 0 -236.666 9.5 -297.999 28.5s-111.666 51.5 -150.999 97.5c-26 31.333 -45 75 -57 131s-18 132.667 -18 230
c0 126.667 20.667 220.667 62 282s110 101.666 206 120.999c-46.667 32.667 -81.167 74.834 -103.5 126.501s-33.5 114.834 -33.5 189.501c0 120 31.333 203.5 94 250.5s179.334 70.5 350.001 70.5c160.667 0 276 -25.333 346 -76s105 -133.667 105 -249v-125h-166v114
c0 71.333 -15 119.333 -45 144s-110 37 -240 37c-124.667 0 -201.167 -11 -229.5 -33s-42.5 -66.333 -42.5 -133c0 -94.667 46.667 -181 140 -259l12 -10l536 -448v207h166v-219c0 -14.667 -1 -31.667 -3 -51s-5.33301 -41.333 -10 -66l281 -234l-96 -116z" />
    <glyph glyph-name="quotesingle" unicode="'" horiz-adv-x="295" 
d="M199 1434v-553h-101v553h101z" />
    <glyph glyph-name="parenleft" unicode="(" horiz-adv-x="664" 
d="M152 997c0 190.667 26.833 323.332 80.5 397.999s147.5 112 281.5 112h64v-155h-46c-83.333 0 -138.833 -20.667 -166.5 -62s-41.5 -141 -41.5 -299v-493c0 -158 13.833 -257.667 41.5 -299s83.167 -62 166.5 -62h46v-155h-64c-134 0 -227.833 37.333 -281.5 112
s-80.5 207.334 -80.5 398.001v505z" />
    <glyph glyph-name="parenright" unicode=")" horiz-adv-x="664" 
d="M512 997v-504.998c0 -190.667 -27 -323.334 -81 -398.001s-147.667 -112 -281 -112h-64v155h45c84 0 139.833 20.667 167.5 62s41.5 141 41.5 299v493c0 158 -13.833 257.667 -41.5 299s-83.5 62 -167.5 62h-45v155h64c133.333 0 227 -37.333 281 -112
s81 -207.334 81 -398.001z" />
    <glyph glyph-name="asterisk" unicode="*" horiz-adv-x="1024" 
d="M391 1038l115 -65l-144 -248l-112 66zM383 1049h-283v133h283v-133zM518 973l115 65l141 -245l-112 -66zM639 1049v133h285v-133h-285zM662 1505l112 -65l-141 -248l-115 68zM250 1440l112 65l144 -245l-115 -66z" />
    <glyph glyph-name="plus" unicode="+" horiz-adv-x="1706" 
d="M903 1221v-562h549v-98h-549v-561h-98v561h-551v98h551v562h98z" />
    <glyph glyph-name="comma" unicode="," horiz-adv-x="692" 
d="M258 0v217h176v-262c0 -52.667 -15.333 -93.5 -46 -122.5s-74 -43.5 -130 -43.5v92c26.667 2.66699 45.667 9.66699 57 21s17 29 17 53v45h-74z" />
    <glyph glyph-name="hyphen" unicode="-" horiz-adv-x="825" 
d="M133 485v140h559v-140h-559z" />
    <glyph glyph-name="period" unicode="." horiz-adv-x="692" 
d="M133 0v217h174v-217h-174z" />
    <glyph glyph-name="slash" unicode="/" horiz-adv-x="545" 
d="M90 -190h-137l528 1697h140z" />
    <glyph glyph-name="zero" unicode="0" horiz-adv-x="1384" 
d="M627 135l131.001 0.00195312c78 0 134.833 5.16699 170.5 15.5s65.5 27.833 89.5 52.5c23.333 24 39.666 54.667 48.999 92s14 103.666 14 198.999v24v475c0 95.333 -4.66699 161.666 -14 198.999s-25.666 68 -48.999 92c-24.667 25.333 -55.834 43.333 -93.501 54
s-93.167 16 -166.5 16h-131c-79.333 0 -136.833 -5.16699 -172.5 -15.5s-64.834 -27.833 -87.501 -52.5c-23.333 -24 -39.833 -54.833 -49.5 -92.5s-14.5 -104.5 -14.5 -200.5v-24v-473c0 -96 4.83301 -162.833 14.5 -200.5s26.167 -68.5 49.5 -92.5
c22.667 -24.667 51.834 -42.167 87.501 -52.5s93.167 -15.5 172.5 -15.5zM621.001 -17.998c-181.333 0 -308 37.333 -380 112s-108 207.334 -108 398.001v505c0 190.667 36 323.334 108 398.001s198.667 112 380 112h143c181.333 0 307.833 -37.333 379.5 -112
s107.5 -207.334 107.5 -398.001v-505c0 -190.667 -35.833 -323.334 -107.5 -398.001s-198.167 -112 -379.5 -112h-143z" />
    <glyph glyph-name="one" unicode="1" horiz-adv-x="1384" 
d="M731 0v1341l-350 -352l-102 101l399 399h215v-1489h-162z" />
    <glyph glyph-name="two" unicode="2" horiz-adv-x="1384" 
d="M150 0l-0.00195312 252c0 78 6 139.5 18 184.5s31.667 83.833 59 116.5c26 30.667 58.833 56.667 98.5 78s105.167 44.333 196.5 69l336 93c52 14 94.667 29.5 128 46.5s56.333 34.833 69 53.5c9.33301 13.333 16 32 20 56s6 71 6 141c0 72 -4.66699 122.333 -14 151
s-25.666 52 -48.999 70c-20 14.667 -59.5 25.5 -118.5 32.5s-141.833 10.5 -248.5 10.5c-143.333 0 -234.5 -15.833 -273.5 -47.5s-58.5 -98.5 -58.5 -200.5v-88h-169v98c0 147.333 35.167 249.333 105.5 306s205.833 85 406.5 85c116 0 202.833 -2.83301 260.5 -8.5
s101.167 -15.167 130.5 -28.5c72.667 -32 122.834 -74 150.501 -126s41.5 -141.667 41.5 -269c0 -140 -20.667 -237.833 -62 -293.5s-120.333 -99.834 -237 -132.501l-416 -117c-89.333 -25.333 -146.833 -52.666 -172.5 -81.999s-38.5 -73 -38.5 -131v-163h926v-156h-1095z
" />
    <glyph glyph-name="three" unicode="3" horiz-adv-x="1384" 
d="M145 494l166.003 -0.000976562v-134c0 -87.333 23.333 -146.666 70 -177.999s154.667 -47 324 -47c118 0 200.333 6 247 18s80.334 32.667 101.001 62c9.33301 14.667 16 37.667 20 69s6 87.666 6 168.999c0 93.333 -18.667 154.833 -56 184.5s-105.333 44.5 -204 44.5
h-227v152h207c98.667 0 165.667 16.833 201 50.5s53 105.5 53 215.5c0 74 -3.83301 123.833 -11.5 149.5s-21.167 46.167 -40.5 61.5c-16.667 14 -50.834 24.333 -102.501 31s-126.5 10 -224.5 10c-142.667 0 -234.334 -13.5 -275.001 -40.5s-61 -78.5 -61 -154.5v-135h-166
v131c0 127.333 37.5 218.166 112.5 272.499s203.5 81.5 385.5 81.5c117.333 0 204.833 -3.16699 262.5 -9.5s102.5 -17.5 134.5 -33.5c57.333 -27.333 97.666 -66.166 120.999 -116.499s35 -129.5 35 -237.5c0 -118.667 -15.333 -201.5 -46 -248.5s-85 -78.833 -163 -95.5
c86.667 -17.333 147.167 -49.833 181.5 -97.5s51.5 -125.167 51.5 -232.5c0 -67.333 -3 -123.166 -9 -167.499s-16 -82.5 -30 -114.5c-26.667 -63.333 -74.5 -107.833 -143.5 -133.5s-187.5 -38.5 -355.5 -38.5c-156.667 0 -262.834 6.5 -318.501 19.5
s-101.167 35.833 -136.5 68.5c-37.333 34 -64.833 75.667 -82.5 125s-26.5 110 -26.5 182v117z" />
    <glyph glyph-name="four" unicode="4" horiz-adv-x="1384" 
d="M274 504h631v821zM113 346v191l729 952h229v-985h227v-158h-227v-346h-166v346h-792z" />
    <glyph glyph-name="five" unicode="5" horiz-adv-x="1384" 
d="M141 436l166.003 -0.000976562v-98c0 -78.667 22.833 -132.167 68.5 -160.5s147.167 -42.5 304.5 -42.5h51c86 0 147.333 6.5 184 19.5s68.334 35.167 95.001 66.5c14.667 17.333 25.167 39.666 31.5 66.999s9.5 74 9.5 140v27v41c0 76.667 -2.5 132.667 -7.5 168
s-13.5 65.333 -25.5 90c-22 42.667 -56 72.667 -102 90s-122 26 -228 26c-135.333 0 -227.5 -10.5 -276.5 -31.5s-74.833 -58.167 -77.5 -111.5h-164v762h983v-158h-819v-428c29.333 40.667 68.166 69.334 116.499 86.001s134.5 25 258.5 25c109.333 0 190.5 -6 243.5 -18
s97.167 -32 132.5 -60c48.667 -39.333 83.167 -89.666 103.5 -150.999s30.5 -155.666 30.5 -282.999c0 -120.667 -8.16699 -210.5 -24.5 -269.5s-43.833 -106.5 -82.5 -142.5c-42.667 -39.333 -92.834 -67.166 -150.501 -83.499s-148.167 -24.5 -271.5 -24.5
c-152.667 0 -259.834 8.66699 -321.501 26s-110.834 47.333 -147.501 90c-26 31.333 -45.833 67.666 -59.5 108.999s-20.5 85.666 -20.5 132.999v96z" />
    <glyph glyph-name="six" unicode="6" horiz-adv-x="1384" 
d="M156 416l-0.000976562 683.999c0 148.667 33.167 253.667 99.5 315s179.166 92 338.499 92h231c152 0 261 -25.5 327 -76.5s99 -134.5 99 -250.5v-80h-166v47c0 80 -21.667 133.833 -65 161.5s-140.333 41.5 -291 41.5c-103.333 0 -179.166 -3.16699 -227.499 -9.5
s-83.833 -16.833 -106.5 -31.5c-24 -15.333 -43.667 -40.666 -59 -75.999s-23 -74.333 -23 -117v-352c26.667 54.667 69.834 93.167 129.501 115.5s157.167 33.5 292.5 33.5c186.667 0 318.667 -23.333 396 -70s116 -124.334 116 -233.001v-270
c0 -71.333 -10.333 -131.666 -31 -180.999s-51.334 -87.333 -92.001 -114c-37.333 -24 -84 -40.833 -140 -50.5s-160 -14.5 -312 -14.5c-195.333 0 -330.166 32 -404.499 96s-111.5 177.333 -111.5 340zM1083 349.999l-0.000976562 213.001
c0 79.333 -21.333 132.333 -64 159s-149.667 40 -321 40c-100.667 0 -176.667 -5.5 -228 -16.5s-88.666 -28.833 -111.999 -53.5c-16.667 -17.333 -28.667 -42.833 -36 -76.5s-11 -83.834 -11 -150.501c0 -62.667 2.83301 -112.5 8.5 -149.5s14.5 -62.833 26.5 -77.5
c27.333 -36 65.333 -61.167 114 -75.5s143.667 -21.5 285 -21.5c142 0 233.833 13.5 275.5 40.5s62.5 83.167 62.5 168.5z" />
    <glyph glyph-name="seven" unicode="7" horiz-adv-x="1384" 
d="M174 1331v158h1069v-164l-719 -1325h-198l743 1331h-895z" />
    <glyph glyph-name="eight" unicode="8" horiz-adv-x="1384" 
d="M702 842c150 0 246 15.832 288 47.499s63 98.5 63 200.5c0 59.333 -2.33301 102 -7 128s-12.667 47.333 -24 64c-16 24.667 -49.667 42.5 -101 53.5s-129 16.5 -233 16.5c-92.667 0 -163.5 -4.16699 -212.5 -12.5s-83.167 -22.166 -102.5 -41.499
c-15.333 -14 -26 -34.833 -32 -62.5s-9 -79.167 -9 -154.5c0 -97.333 21.5 -161.5 64.5 -192.5s144.833 -46.5 305.5 -46.5zM690 136.999c98 0 170.666 3.83203 217.999 11.499s82 20.167 104 37.5c24 18.667 40.833 43.334 50.5 74.001s14.5 81.334 14.5 152.001
c0 57.333 -2.66699 100.166 -8 128.499s-14.333 52.166 -27 71.499c-19.333 30.667 -52.333 52 -99 64s-131 18 -253 18c-104 0 -178.5 -3.66699 -223.5 -11s-78.167 -20 -99.5 -38s-36.666 -43.833 -45.999 -77.5s-14 -79.5 -14 -137.5c0 -71.333 3.66699 -122.5 11 -153.5
s19.333 -55.5 36 -73.5c22 -23.333 58 -40.166 108 -50.499s126 -15.5 228 -15.5zM349.999 773.998c-68.667 18 -116.832 50 -144.499 96s-41.5 120.667 -41.5 224c0 81.333 4.16699 141.833 12.5 181.5s22.5 74.5 42.5 104.5c31.333 46.667 81.5 79.5 150.5 98.5
s179.167 28.5 330.5 28.5c114.667 0 205.667 -5.83301 273 -17.5s115.666 -30.167 144.999 -55.5c38.667 -32.667 65.834 -71.667 81.501 -117s23.5 -115.666 23.5 -210.999c0 -110 -14.667 -189.5 -44 -238.5s-79 -80.167 -149 -93.5
c79.333 -20.667 134.666 -55.167 165.999 -103.5s47 -128.5 47 -240.5c0 -108 -7 -187.5 -21 -238.5s-37.667 -91.5 -71 -121.5c-35.333 -32 -87 -54.667 -155 -68s-174.667 -20 -320 -20s-251.833 9.66699 -319.5 29s-120.167 52.666 -157.5 99.999
c-20.667 25.333 -35.5 60.833 -44.5 106.5s-13.5 115.167 -13.5 208.5c0 115.333 15.333 197 46 245s85 82.333 163 103z" />
    <glyph glyph-name="nine" unicode="9" horiz-adv-x="1384" 
d="M281 1135l-0.000976562 -213.002c0 -79.333 21.333 -132.333 64 -159s149.667 -40 321 -40c100.667 0 176.667 5.33301 228 16s88.666 28.667 111.999 54c16 16.667 27.5 41.334 34.5 74.001s10.5 83.667 10.5 153c0 65.333 -2.66699 116 -8 152s-13.666 61 -24.999 75
c-28 36.667 -67.167 62.334 -117.5 77.001s-145.166 22 -284.499 22c-140 0 -230.833 -13.5 -272.5 -40.5s-62.5 -83.833 -62.5 -170.5zM1208 1071l0.00390625 -685.999c0 -148 -33 -252.5 -99 -313.5s-179 -91.5 -339 -91.5h-231c-152.667 0 -261.834 25.167 -327.501 75.5
s-98.5 133.5 -98.5 249.5v80h166v-47c0 -80.667 21.667 -134.667 65 -162s140.333 -41 291 -41c103.333 0 179.166 3.16699 227.499 9.5s83.833 16.833 106.5 31.5c24 15.333 43.667 40.666 59 75.999s23 74.333 23 117v356c-26.667 -55.333 -69.834 -94.5 -129.501 -117.5
s-157.834 -34.5 -294.501 -34.5c-187.333 0 -319.166 23.167 -395.499 69.5s-114.5 123.5 -114.5 231.5v273c0 70.667 10.167 130.5 30.5 179.5s51.166 86.833 92.499 113.5c38 24.667 86 42 144 52s160 15 306 15c196 0 331.333 -32.167 406 -96.5s112 -177.5 112 -339.5z
" />
    <glyph glyph-name="colon" unicode=":" horiz-adv-x="692" 
d="M258 0v217h176v-217h-176zM258 834v219h176v-219h-176z" />
    <glyph glyph-name="semicolon" unicode=";" horiz-adv-x="692" 
d="M258 834v219h176v-219h-176zM258 0v217h176v-262c0 -52.667 -15.333 -93.5 -46 -122.5s-74 -43.5 -130 -43.5v92c26.667 2.66699 45.667 9.66699 57 21s17 29 17 53v45h-74z" />
    <glyph glyph-name="less" unicode="&#x3c;" horiz-adv-x="1706" 
d="M1442 1026l-1022 -416l1022 -413v-109l-1178 481v82l1178 484v-109z" />
    <glyph glyph-name="equal" unicode="=" horiz-adv-x="1706" 
d="M1452 473v-98h-1198v98h1198zM1452 846v-98h-1198v98h1198z" />
    <glyph glyph-name="greater" unicode="&#x3e;" horiz-adv-x="1706" 
d="M1442 651v-82l-1178 -481v109l1022 413l-1022 416v109z" />
    <glyph glyph-name="question" unicode="?" horiz-adv-x="1063" 
d="M383 0v190h166v-190h-166zM383 408l-0.00390625 117.996c0 59.333 13.667 107 41 143s92.333 76.667 195 122l12 5c96.667 41.333 155.334 77 176.001 107c12.667 18.667 22 45.667 28 81s9 80 9 134c0 90.667 -16.167 152.667 -48.5 186s-96.166 50 -191.499 50
c-103.333 0 -176.166 -2.66699 -218.499 -8s-71.833 -14.333 -88.5 -27c-20 -15.333 -34.5 -39.666 -43.5 -72.999s-13.5 -80 -13.5 -140c0 -20 0.166992 -35.5 0.5 -46.5s0.5 -21.5 0.5 -31.5h-163v148c0 120.667 34.833 206 104.5 256s193.167 75 370.5 75
c176 0 295.167 -28.167 357.5 -84.5s93.5 -159.166 93.5 -308.499c0 -124.667 -13 -216.167 -39 -274.5s-72 -102.5 -138 -132.5c-19.333 -9.33301 -46.666 -21.666 -81.999 -36.999c-130.667 -57.333 -196 -119.666 -196 -186.999v-75h-166z" />
    <glyph glyph-name="at" unicode="@" horiz-adv-x="2048" 
d="M1298 836l60.001 124.997h94l-139 -562c-6.66699 -29.333 -11.167 -50.166 -13.5 -62.499s-3.5 -22.166 -3.5 -29.499c0 -28.667 9.5 -51.167 28.5 -67.5s45.167 -24.5 78.5 -24.5c34.667 0 70.167 7 106.5 21s71.166 34.333 104.499 61
c64.667 51.333 115 119.5 151 204.5s54 179.167 54 282.5c0 169.333 -66 308.333 -198 417s-301.667 163 -509 163c-116.667 0 -223.334 -16.5 -320.001 -49.5s-184 -82.833 -262 -149.5c-98 -84 -172 -180.833 -222 -290.5s-75 -230.5 -75 -362.5
c0 -116 20 -217.667 60 -305s101.333 -164.666 184 -231.999c68 -54.667 149.333 -97.334 244 -128.001s195 -46 301 -46c114 0 225.5 16.5 334.5 49.5s209.167 80.833 300.5 143.5l39 -55c-98 -74 -201.667 -129.5 -311 -166.5s-223.666 -55.5 -342.999 -55.5
c-127.333 0 -243 15.5 -347 46.5s-195.667 77.167 -275 138.5c-103.333 78.667 -179.666 169.834 -228.999 273.501s-74 224.167 -74 361.5c0 136 28.667 263.167 86 381.5s141.333 223.166 252 314.499c88 72.667 187.5 127.667 298.5 165s231.167 56 360.5 56
c108 0 210.667 -14.667 308 -44s180.333 -70.666 249 -123.999c86 -66 150.833 -142 194.5 -228s65.5 -179.333 65.5 -280c0 -114 -20.667 -217.167 -62 -309.5s-101.666 -169.833 -180.999 -232.5c-46.667 -36 -96.334 -63.5 -149.001 -82.5s-106.334 -28.5 -161.001 -28.5
c-64.667 0 -112.834 12.5 -144.501 37.5s-47.5 62.833 -47.5 113.5c0 2.66699 0.333008 7.33398 1 14.001s1 11.667 1 15c-34 -58 -76.333 -102.5 -127 -133.5s-106.667 -46.5 -168 -46.5c-102 0 -179.667 27.833 -233 83.5s-80 137.167 -80 244.5
c0 153.333 45 282.666 135 387.999s199.667 158 329 158c62.667 0 115.334 -13.667 158.001 -41s74.667 -68 96 -122zM1210 468.997l61.999 248c-12 62 -37.167 110.5 -75.5 145.5s-84.833 52.5 -139.5 52.5c-102.667 0 -187.5 -44.5 -254.5 -133.5
s-100.5 -201.5 -100.5 -337.5c0 -74 18.333 -131.667 55 -173s87.334 -62 152.001 -62c71.333 0 134.5 23.833 189.5 71.5s92.167 110.5 111.5 188.5z" />
    <glyph glyph-name="A" unicode="A" horiz-adv-x="1417" 
d="M387 528h645l-297 803h-53zM23 0l550 1489h271l553 -1489h-170l-142 381h-753l-139 -381h-170z" />
    <glyph glyph-name="B" unicode="B" horiz-adv-x="1436" 
d="M346 846h537c87.333 0 146 15.667 176 47s45 100.333 45 207c0 102 -16 166 -48 192s-113.667 39 -245 39h-465v-485zM346 156l543 0.000976562c98.667 0 165 15.167 199 45.5s51 109.166 51 236.499c0 107.333 -19 176.833 -57 208.5s-136.667 47.5 -296 47.5h-440v-538
zM184 0.000976562l0.00195312 1489h693c160 0 266.167 -24.333 318.5 -73s78.5 -148 78.5 -298c0 -115.333 -12.833 -196.166 -38.5 -242.499s-70.834 -78.166 -135.501 -95.499c78.667 -20 133.5 -55.5 164.5 -106.5s46.5 -136.833 46.5 -257.5
c0 -164 -32.333 -274.333 -97 -331s-194.334 -85 -389.001 -85h-641z" />
    <glyph glyph-name="C" unicode="C" horiz-adv-x="1399" 
d="M133 997c0 190.667 36.501 323.332 109.501 397.999s201.833 112 386.5 112h174c183.333 0 312 -32.167 386 -96.5s111 -173.5 111 -327.5v-65h-170v41c0 112.667 -23 189.667 -69 231s-136 62 -270 62h-115c-90 0 -155.5 -5.5 -196.5 -16.5s-75.167 -29.5 -102.5 -55.5
c-27.333 -25.333 -46.5 -58.5 -57.5 -99.5s-16.5 -115.833 -16.5 -224.5v-424c0 -108 5.5 -182.5 16.5 -223.5s30.167 -74.167 57.5 -99.5c27.333 -26 60.5 -44.5 99.5 -55.5s105.5 -16.5 199.5 -16.5h115c137.333 0 228.666 21.667 273.999 65s68 126.333 68 249
c0 18.667 -0.166992 33 -0.5 43s-0.833008 19.333 -1.5 28h169v-98c0 -165.333 -35.833 -280.333 -107.5 -345s-201.5 -97 -389.5 -97h-174c-184.667 0 -313.5 37.333 -386.5 112s-109.5 207.334 -109.5 398.001v505z" />
    <glyph glyph-name="D" unicode="D" horiz-adv-x="1536" 
d="M180 0v1489h719c186.667 0 317.667 -37 393 -111s113 -203 113 -387v-491c0 -184.667 -37.833 -314.167 -113.5 -388.5s-206.5 -111.5 -392.5 -111.5h-719zM344 147l528 -0.000976562c143.333 0 239.333 24.333 288 73s73 141.334 73 278.001v481
c0 144 -24.167 240.333 -72.5 289s-144.5 73 -288.5 73h-528v-1194z" />
    <glyph glyph-name="E" unicode="E" horiz-adv-x="1309" 
d="M180 0v1489h1045v-158h-881v-487h856v-152h-856v-536h881v-156h-1045z" />
    <glyph glyph-name="F" unicode="F" horiz-adv-x="1214" 
d="M180 0v1489h930v-158h-766v-487h743v-152h-743v-692h-164z" />
    <glyph glyph-name="G" unicode="G" horiz-adv-x="1503" 
d="M123 997c0 190 39.334 322.5 118.001 397.5s218 112.5 418 112.5h189c183.333 0 318.5 -31.167 405.5 -93.5s130.5 -159.5 130.5 -291.5v-63h-170v18c0 102.667 -26 174.167 -78 214.5s-151.333 60.5 -298 60.5h-131c-102 0 -175.333 -5.66699 -220 -17
s-82.667 -30.333 -114 -57c-28.667 -24.667 -48.834 -57.667 -60.501 -99s-17.5 -115.666 -17.5 -222.999v-424c0 -106.667 5.83301 -180.667 17.5 -222s31.834 -74.333 60.501 -99c31.333 -26.667 68.666 -45.667 111.999 -57s117.333 -17 222 -17h131
c94.667 0 161.667 5 201 15s73.333 27 102 51c26.667 22.667 45.5 53.667 56.5 93s16.5 106.666 16.5 201.999v92h-413v151h583v-249c0 -190.667 -39.333 -323.334 -118 -398.001s-218 -112 -418 -112h-189c-200 0 -339.333 37.333 -418 112s-118 207.334 -118 398.001v505z
" />
    <glyph glyph-name="H" unicode="H" horiz-adv-x="1546" 
d="M180 0v1489h164v-643h858v643h164v-1489h-164v690h-858v-690h-164z" />
    <glyph glyph-name="I" unicode="I" horiz-adv-x="526" 
d="M180 0v1489h166v-1489h-166z" />
    <glyph glyph-name="J" unicode="J" horiz-adv-x="1208" 
d="M47 522l166.001 0.000976562v-24c0 -154.667 17.667 -253.5 53 -296.5s108.333 -64.5 219 -64.5h119c111.333 0 184.666 21.333 219.999 64s53 141.667 53 297v991h165v-1040c0 -167.333 -32.5 -287 -97.5 -359s-173.833 -108 -326.5 -108h-147
c-158 0 -268.167 37.167 -330.5 111.5s-93.5 207.166 -93.5 398.499v30z" />
    <glyph glyph-name="K" unicode="K" horiz-adv-x="1370" 
d="M180 0v1489h164v-631h127l604 631h217l-686 -711l774 -778h-225l-684 698h-127v-698h-164z" />
    <glyph glyph-name="L" unicode="L" horiz-adv-x="1223" 
d="M180 0v1489h162v-1333h844v-156h-1006z" />
    <glyph glyph-name="M" unicode="M" horiz-adv-x="1919" 
d="M180 0v1489h271l510 -1327l505 1327h273v-1489h-164v1350l-514 -1350h-203l-514 1350v-1350h-164z" />
    <glyph glyph-name="N" unicode="N" horiz-adv-x="1587" 
d="M180 0v1489h254l807 -1329v1329h164v-1489h-254l-807 1331v-1331h-164z" />
    <glyph glyph-name="O" unicode="O" horiz-adv-x="1526" 
d="M809 1352l-92.002 -0.000976562c-104.667 0 -178.667 -5.66699 -222 -17s-80.666 -30.333 -111.999 -57c-29.333 -25.333 -50 -59.5 -62 -102.5s-18 -116.833 -18 -221.5v-422c0 -104 6 -177.167 18 -219.5s32.667 -76.166 62 -101.499
c31.333 -26.667 68.666 -45.667 111.999 -57s117.333 -17 222 -17h92c104.667 0 179 5.66699 223 17s81.667 30.333 113 57c28.667 24.667 48.834 57.667 60.501 99s17.5 115.333 17.5 222v424c0 104.667 -6 178.5 -18 221.5s-32.667 77.167 -62 102.5
c-30.667 26 -67.667 44.5 -111 55.5s-117.666 16.5 -222.999 16.5zM132.998 996.999c0 190 39.332 322.5 117.999 397.5s218.334 112.5 419.001 112.5h188c202.667 0 342.834 -37 420.501 -111s116.5 -207 116.5 -399v-505c0 -190.667 -39.5 -323.334 -118.5 -398.001
s-218.5 -112 -418.5 -112h-188c-200.667 0 -340.334 37.333 -419.001 112s-118 207.334 -118 398.001v505z" />
    <glyph glyph-name="P" unicode="P" horiz-adv-x="1341" 
d="M1075 924v219.001c0 72 -16.833 121.333 -50.5 148s-106.834 40 -219.501 40h-461v-596h461c110.667 0 183.334 13.667 218.001 41s52 76.666 52 147.999zM180 0.000976562v1489h627c167.333 0 282.5 -24.833 345.5 -74.5s94.5 -138.167 94.5 -265.5v-225
c0 -130.667 -31.167 -221 -93.5 -271s-177.833 -75 -346.5 -75h-463v-578h-164z" />
    <glyph glyph-name="Q" unicode="Q" horiz-adv-x="1526" 
d="M1223 498l-0.00292969 457.999c0 104.667 -6 178.5 -18 221.5s-32.667 77.167 -62 102.5c-30.667 26 -67.667 44.5 -111 55.5s-117.666 16.5 -222.999 16.5h-92c-104.667 0 -178.667 -5.66699 -222 -17s-80.666 -30.333 -111.999 -57
c-29.333 -25.333 -50 -59.5 -62 -102.5s-18 -116.833 -18 -221.5v-422c0 -104 6 -177.167 18 -219.5s32.667 -76.166 62 -101.499c31.333 -26.667 68.666 -45.667 111.999 -57s117.333 -17 222 -17h129c79.333 0 137.333 2 174 6s63.334 11 80.001 21l-281 280l105 107
l284 -280c4.66699 27.333 8.33398 60.5 11.001 99.5s4 81.5 4 127.5zM132.997 996.999c0 190 39.3311 322.497 117.998 397.497s218.334 112.5 419.001 112.5h188c202.667 0 342.834 -37 420.501 -111s116.5 -207 116.5 -399v-505
c0 -95.333 -5.83301 -166.666 -17.5 -213.999s-31.167 -86 -58.5 -116l90 -90l-109 -111l-94 96c-27.333 -27.333 -65.666 -46.666 -114.999 -57.999s-127 -17 -233 -17h-188c-200.667 0 -340.334 37.333 -419.001 112s-118 207.334 -118 398.001v505z" />
    <glyph glyph-name="R" unicode="R" horiz-adv-x="1432" 
d="M819 1331h-475v-596h475c124 0 205.167 15.333 243.5 46s57.5 85.667 57.5 165v174c0 80.667 -18.5 136 -55.5 166s-118.833 45 -245.5 45zM180 0v1489h672c167.333 0 282.5 -24.833 345.5 -74.5s94.5 -138.167 94.5 -265.5v-225c0 -78 -15.833 -139.167 -47.5 -183.5
s-79.834 -72.166 -144.501 -83.499c70.667 -16.667 120.334 -47 149.001 -91s43 -113.333 43 -208v-358h-172v307c0 106.667 -16.833 178.834 -50.5 216.501s-99.5 56.5 -197.5 56.5h-528v-580h-164z" />
    <glyph glyph-name="S" unicode="S" horiz-adv-x="1460" 
d="M139 485l165.996 -0.00292969v-28c0 -88.667 6.66699 -154 20 -196s35.333 -71.667 66 -89c24 -13.333 61 -22.833 111 -28.5s153 -8.5 309 -8.5c84.667 0 150.334 5.5 197.001 16.5s81.334 28.833 104.001 53.5c12.667 13.333 22 36 28 68s9 75.333 9 130
c0 110.667 -11.167 180.167 -33.5 208.5s-66.5 45.166 -132.5 50.499l-459 36c-137.333 10.667 -232.333 45 -285 103s-79 155.667 -79 293c0 86.667 8.66699 156.334 26 209.001s45.333 96.334 84 131.001c30 26.667 72 45.5 126 56.5s149.333 16.5 286 16.5h53
c152.667 0 260.167 -7.33301 322.5 -22s114.5 -40 156.5 -76c28.667 -24 49.834 -58.167 63.501 -102.5s20.5 -99.5 20.5 -165.5c0 -19.333 -0.166992 -34.166 -0.5 -44.499s-0.833008 -19.5 -1.5 -27.5h-166v37c0 54.667 -3.16699 96.5 -9.5 125.5s-16.5 50.5 -30.5 64.5
c-20.667 20.667 -57.5 35.167 -110.5 43.5s-153.5 12.5 -301.5 12.5c-153.333 0 -249.666 -17.333 -288.999 -52s-59 -104 -59 -208c0 -85.333 12.833 -144.166 38.5 -176.499s75.167 -51.5 148.5 -57.5l468 -39c122.667 -10.667 208.667 -44.5 258 -101.5
s74 -152.167 74 -285.5c0 -97.333 -6.33301 -170.5 -19 -219.5s-33.667 -89.833 -63 -122.5c-36 -40.667 -84.5 -69.167 -145.5 -85.5s-172.167 -24.5 -333.5 -24.5h-74c-137.333 0 -234.5 7 -291.5 21s-104.5 38.333 -142.5 73c-37.333 32 -64.833 75.333 -82.5 130
s-26.5 124 -26.5 208v73z" />
    <glyph glyph-name="T" unicode="T" horiz-adv-x="1069" 
d="M-23 1331v158h1115v-158h-476v-1331h-165v1331h-474z" />
    <glyph glyph-name="U" unicode="U" horiz-adv-x="1532" 
d="M166 1489h166.002v-977c0 -96 5.16699 -163 15.5 -201s28.166 -68.667 53.499 -92c26.667 -24 58.5 -40.833 95.5 -50.5s100.833 -14.5 191.5 -14.5h156c91.333 0 155.666 4.83301 192.999 14.5s69.333 26.5 96 50.5c24.667 22.667 42 53 52 91s15 105.333 15 202v977
h166v-997c0 -190 -37.5 -322.5 -112.5 -397.5s-207.5 -112.5 -397.5 -112.5h-180c-190 0 -322.5 37.5 -397.5 112.5s-112.5 207.5 -112.5 397.5v997z" />
    <glyph glyph-name="V" unicode="V" horiz-adv-x="1331" 
d="M2 1489h176l475 -1335l477 1335h175l-545 -1489h-213z" />
    <glyph glyph-name="W" unicode="W" horiz-adv-x="2062" 
d="M61 1489h170l340 -1288l342 1288h234l344 -1288l340 1288h172l-406 -1489h-211l-356 1311l-350 -1311h-219z" />
    <glyph glyph-name="X" unicode="X" horiz-adv-x="1305" 
d="M-14 0l583 782l-526 707h190l420 -584l418 584h193l-527 -705l580 -784h-187l-475 664l-481 -664h-188z" />
    <glyph glyph-name="Y" unicode="Y" horiz-adv-x="1219" 
d="M690 0h-162v659l-616 830h194l502 -694l502 694h195l-615 -827v-662z" />
    <glyph glyph-name="Z" unicode="Z" horiz-adv-x="1331" 
d="M96 0v178l957 1163h-914v148h1088v-174l-951 -1159h951v-156h-1131z" />
    <glyph glyph-name="bracketleft" unicode="[" horiz-adv-x="664" 
d="M152 1489h426v-158h-267v-1173h267v-158h-426v1489z" />
    <glyph glyph-name="backslash" unicode="\" horiz-adv-x="545" 
d="M621 -190h-140l-530 1697h141z" />
    <glyph glyph-name="bracketright" unicode="]" horiz-adv-x="664" 
d="M512 1489v-1489h-426v158h266v1173h-266v158h426z" />
    <glyph glyph-name="asciicircum" unicode="^" horiz-adv-x="2048" 
d="M1094 1458l530 -557h-143l-457 455l-459 -455h-143l532 557h140z" />
    <glyph glyph-name="underscore" unicode="_" horiz-adv-x="1024" 
d="M1024 -383v-100h-1024v100h1024z" />
    <glyph glyph-name="grave" unicode="`" horiz-adv-x="1024" 
d="M545 1178l-269 348h152l209 -348h-92z" />
    <glyph glyph-name="a" unicode="a" 
d="M850 268l0.000976562 111.002c0 50 -25.5 86.667 -76.5 110s-132.167 35 -243.5 35c-102 0 -170.167 -12.833 -204.5 -38.5s-51.5 -74.834 -51.5 -147.501c0 -82.667 18.167 -137.834 54.5 -165.501s109.166 -41.5 218.499 -41.5c98 0 173 11.833 225 35.5
s78 57.5 78 101.5zM858.001 111.002c-24 -44 -62.166 -75.832 -114.499 -95.499s-124.833 -29.5 -217.5 -29.5c-164.667 0 -275 23.5 -331 70.5s-84 134.5 -84 262.5c0 74 6.5 132 19.5 174s34.5 75.667 64.5 101c25.333 21.333 62.5 36.5 111.5 45.5s119.5 13.5 211.5 13.5
c95.333 0 168.166 -7.83301 218.499 -23.5s88.166 -41.834 113.499 -78.501v182c0 86 -16.667 141.667 -50 167s-117 38 -251 38c-97.333 0 -162 -10.167 -194 -30.5s-48.667 -58.5 -50 -114.5h-155v24c0 90 29.167 154.167 87.5 192.5s158.833 57.5 301.5 57.5
c111.333 0 196 -4.66699 254 -14s101 -24.333 129 -45c30.667 -24 52.334 -53.667 65.001 -89s19 -96 19 -182v-737h-142z" />
    <glyph glyph-name="b" unicode="b" horiz-adv-x="1176" 
d="M319 612v-172.001c0 -109.333 25.5 -188.833 76.5 -238.5s132.833 -74.5 245.5 -74.5c102 0 169.833 18.333 203.5 55s50.5 121.334 50.5 254.001v180c0 133.333 -16.833 218.333 -50.5 255s-101.5 55 -203.5 55c-112.667 0 -194.5 -24.833 -245.5 -74.5
s-76.5 -129.5 -76.5 -239.5zM164 -0.000976562l-0.000976562 1489h155v-586c30 58 70.5 99.833 121.5 125.5s119.833 38.5 206.5 38.5c150 0 255.833 -31 317.5 -93s92.5 -169.667 92.5 -323v-250c0 -152.667 -30.833 -260 -92.5 -322s-167.5 -93 -317.5 -93
c-90.667 0 -162.667 14.167 -216 42.5s-92.666 72.833 -117.999 133.5v-162h-149z" />
    <glyph glyph-name="c" unicode="c" 
d="M543 -14c-157.333 0 -267.337 30.667 -330.004 92s-94 169 -94 323v250c0 154.667 31.167 262.667 93.5 324s171.833 92 328.5 92h73c148.667 0 255.834 -28.5 321.501 -85.5s99.834 -150.5 102.501 -280.5l-161 -1c-3.33301 85.333 -22.666 144 -57.999 176
s-103.666 48 -204.999 48h-73c-107.333 0 -177.5 -18 -210.5 -54s-49.5 -120.667 -49.5 -254v-180c0 -134 16.667 -219 50 -255s103.333 -54 210 -54h73c102.667 0 172.167 17.5 208.5 52.5s54.5 98.833 54.5 191.5v18h161v-20c0 -137.333 -32.5 -235.5 -97.5 -294.5
s-173.167 -88.5 -324.5 -88.5h-73z" />
    <glyph glyph-name="d" unicode="d" horiz-adv-x="1176" 
d="M856 440v172.001c0 110 -25.5 189.833 -76.5 239.5s-132.5 74.5 -244.5 74.5c-102 0 -169.833 -18.333 -203.5 -55s-50.5 -121.667 -50.5 -255v-180c0 -132.667 16.833 -217.334 50.5 -254.001s101.5 -55 203.5 -55c112 0 193.5 24.833 244.5 74.5
s76.5 129.167 76.5 238.5zM862 162.001c-24.667 -61.333 -63.501 -106 -116.501 -134s-124.833 -42 -215.5 -42c-150 0 -256 31.167 -318 93.5s-93 169.5 -93 321.5v250c0 152.667 31 260.167 93 322.5s168 93.5 318 93.5c86.667 0 155.334 -12.833 206.001 -38.5
s90.667 -67.5 120 -125.5v586h156v-1489h-150v162z" />
    <glyph glyph-name="e" unicode="e" 
d="M281 629h596v41c0 98.667 -17.667 165.667 -53 201s-105.333 53 -210 53h-73c-104 0 -173.333 -17.667 -208 -53s-52 -102.333 -52 -201v-41zM543 -14c-157.333 0 -267.334 30.667 -330.001 92s-94 169 -94 323v250c0 154.667 31.167 262.667 93.5 324
s171.833 92 328.5 92h73c157.333 0 267.333 -30.667 330 -92s94 -169.333 94 -324v-159l-757 -1c-0.666992 -10.667 -1.16699 -22.5 -1.5 -35.5s-0.5 -31.167 -0.5 -54.5c0 -108.667 17.333 -181.5 52 -218.5s104.667 -55.5 210 -55.5h73c94 0 159.333 13.5 196 40.5
s58 74.167 64 141.5h162c-8 -114 -44.667 -196.333 -110 -247s-168.666 -76 -309.999 -76h-73z" />
    <glyph glyph-name="f" unicode="f" horiz-adv-x="688" 
d="M47 920v132.998h147c0 8 -0.166992 17.167 -0.5 27.5s-0.5 24.833 -0.5 43.5c0 134 23.5 228.333 70.5 283s128.5 82 244.5 82c30 0 59.333 -0.666992 88 -2s57.334 -3.33301 86.001 -6v-142c-8.66699 0.666992 -20.667 1.33398 -36 2.00098c-46 1.33301 -77.667 2 -95 2
c-80.667 0 -134.334 -12.167 -161.001 -36.5s-40 -85.166 -40 -182.499v-71h332v-133h-332v-920h-155v920h-148z" />
    <glyph glyph-name="g" unicode="g" horiz-adv-x="1204" 
d="M887 440v172c0 110 -25.5 189.833 -76.5 239.5s-132.833 74.5 -245.5 74.5c-102 0 -170.167 -18.5 -204.5 -55.5s-51.5 -121.833 -51.5 -254.5v-180c0 -132 17.167 -216.5 51.5 -253.5s102.5 -55.5 204.5 -55.5c112.667 0 194.5 24.833 245.5 74.5
s76.5 129.167 76.5 238.5zM1042 1053v-1041c0 -154.667 -30.333 -262.5 -91 -323.5s-167.334 -91.5 -320.001 -91.5h-72c-137.333 0 -237.666 25 -300.999 75s-99.333 132.667 -108 248h159c6.66699 -67.333 27.5 -114.166 62.5 -140.499s98.167 -39.5 189.5 -39.5h70
c92 0 157.667 15 197 45s59 79 59 147v218c-29.333 -58 -69.5 -99.833 -120.5 -125.5s-120.167 -38.5 -207.5 -38.5c-150 0 -255.667 31 -317 93s-92 169.333 -92 322v250c0 153.333 30.667 261 92 323s167 93 317 93c90 0 161.833 -14.333 215.5 -43
s93.167 -73.667 118.5 -135v164h149z" />
    <glyph glyph-name="h" unicode="h" horiz-adv-x="1180" 
d="M162 0l-0.000976562 1489h149v-580c25.333 54 66 93.833 122 119.5s130 38.5 222 38.5c138 0 234.667 -27.833 290 -83.5s83 -153.5 83 -293.5v-690h-156v657c0 110 -16.167 182.333 -48.5 217s-95.166 52 -188.499 52c-110 0 -190.5 -25 -241.5 -75
s-76.5 -129.667 -76.5 -239v-612h-155z" />
    <glyph glyph-name="i" unicode="i" horiz-adv-x="479" 
d="M162 1313v176h155v-176h-155zM162 0v1053h155v-1053h-155z" />
    <glyph glyph-name="j" unicode="j" horiz-adv-x="508" 
d="M350 -154c0 -83.333 -17.6689 -145.668 -53.002 -187.001s-88.666 -62 -159.999 -62c-9.33301 0 -20.166 0.5 -32.499 1.5s-25.833 2.5 -40.5 4.5l-1 123h54c28.667 0 48.5 11.833 59.5 35.5s16.5 79.834 16.5 168.501v1123h157v-1207zM192.998 1313v176h157v-176h-157z
" />
    <glyph glyph-name="k" unicode="k" horiz-adv-x="991" 
d="M162 0v1489h155v-846h48l344 410h178l-398 -469l476 -584h-197l-403 500h-48v-500h-155z" />
    <glyph glyph-name="l" unicode="l" horiz-adv-x="479" 
d="M162 0v1489h155v-1489h-155z" />
    <glyph glyph-name="m" unicode="m" horiz-adv-x="1810" 
d="M184 0l-0.000976562 1053h152v-144c22 54 58.833 93.833 110.5 119.5s119.834 38.5 204.501 38.5c89.333 0 159.166 -13.667 209.499 -41s87.833 -71.666 112.5 -132.999c30.667 61.333 71.167 105.666 121.5 132.999s116.166 41 197.499 41
c138 0 233.667 -27.333 287 -82s80 -153 80 -295v-690h-156v641c0 117.333 -15.167 194.166 -45.5 230.499s-89.5 54.5 -177.5 54.5c-97.333 0 -168.166 -24.833 -212.499 -74.5s-66.5 -129.5 -66.5 -239.5v-612h-151v713c0 83.333 -15.167 139.666 -45.5 168.999
s-88.166 44 -173.499 44c-100 0 -173.5 -25.333 -220.5 -76s-70.5 -130 -70.5 -238v-612h-156z" />
    <glyph glyph-name="n" unicode="n" horiz-adv-x="1180" 
d="M162 0l-0.000976562 1053h149v-144c25.333 54 66 93.833 122 119.5s130 38.5 222 38.5c138 0 234.667 -27.833 290 -83.5s83 -153.5 83 -293.5v-690h-156v657c0 110 -16.167 182.333 -48.5 217s-95.166 52 -188.499 52c-110 0 -190.5 -25.167 -241.5 -75.5
s-76.5 -129.833 -76.5 -238.5v-612h-155z" />
    <glyph glyph-name="o" unicode="o" 
d="M877 436v179.999c0 132.667 -16.833 217.167 -50.5 253.5s-104.5 54.5 -212.5 54.5h-73c-107.333 0 -177.5 -18 -210.5 -54s-49.5 -120.667 -49.5 -254v-180c0 -134 16.667 -219 50 -255s103.333 -54 210 -54h73c107.333 0 178 18.333 212 55s51 121.334 51 254.001z
M543 -14.001c-157.333 0 -267.333 30.667 -330 92s-94 169 -94 323v250c0 154.667 31.167 262.667 93.5 324s171.833 92 328.5 92h73c157.333 0 267.333 -30.667 330 -92s94 -169.333 94 -324v-250c0 -154.667 -31.167 -262.5 -93.5 -323.5s-171.833 -91.5 -328.5 -91.5h-73
z" />
    <glyph glyph-name="p" unicode="p" horiz-adv-x="1176" 
d="M319 440c0 -109.333 25.5 -188.834 76.5 -238.501s132.833 -74.5 245.5 -74.5c102 0 169.833 18.333 203.5 55s50.5 121.334 50.5 254.001v180c0 133.333 -16.833 218.333 -50.5 255s-101.5 55 -203.5 55c-112.667 0 -194.5 -24.833 -245.5 -74.5
s-76.5 -129.5 -76.5 -239.5v-172zM164 1053h149v-164c25.333 61.333 64.833 106.333 118.5 135s125.5 43 215.5 43c150 0 255.833 -31 317.5 -93s92.5 -169.667 92.5 -323v-250c0 -152.667 -30.833 -260 -92.5 -322s-167.5 -93 -317.5 -93
c-86.667 0 -155.5 12.833 -206.5 38.5s-91.5 67.5 -121.5 125.5v-553h-155v1456z" />
    <glyph glyph-name="q" unicode="q" horiz-adv-x="1176" 
d="M856 440v172.001c0 110 -25.5 189.833 -76.5 239.5s-132.5 74.5 -244.5 74.5c-102 0 -169.833 -18.333 -203.5 -55s-50.5 -121.667 -50.5 -255v-180c0 -132.667 16.833 -217.334 50.5 -254.001s101.5 -55 203.5 -55c112 0 193.5 24.833 244.5 74.5
s76.5 129.167 76.5 238.5zM1012 1053l0.000976562 -1456h-156v553c-29.333 -58 -69.333 -99.833 -120 -125.5s-119.334 -38.5 -206.001 -38.5c-150 0 -256 31.167 -318 93.5s-93 169.5 -93 321.5v250c0 152.667 31 260.167 93 322.5s168 93.5 318 93.5
c90 0 161.5 -14.333 214.5 -43s92.167 -73.667 117.5 -135v164h150z" />
    <glyph glyph-name="r" unicode="r" horiz-adv-x="958" 
d="M160 0l0.000976562 1053h151v-144c22 54.667 56.333 94.667 103 120s108.667 38 186 38c114.667 0 195.167 -27.667 241.5 -83s69.5 -153.333 69.5 -294v-8h-157v31c0 84 -13.333 140.5 -40 169.5s-77 43.5 -151 43.5c-86.667 0 -149.334 -24.5 -188.001 -73.5
s-58 -129.167 -58 -240.5v-612h-157z" />
    <glyph glyph-name="s" unicode="s" horiz-adv-x="1194" 
d="M123 313l158 0.000976562v-24c0 -64.667 20 -109.167 60 -133.5s120.333 -36.5 241 -36.5c135.333 0 218.666 12.333 249.999 37s47 72.334 47 143.001c0 68.667 -12.833 114.5 -38.5 137.5s-89.834 37.167 -192.501 42.5c-38 2 -89.333 4 -154 6
c-141.333 4 -225.333 13.667 -252 29c-40 22 -68.5 52 -85.5 90s-25.5 92.667 -25.5 164c0 116.667 29.667 195.667 89 237s190 62 392 62c156.667 0 262.834 -19.667 318.501 -59s83.5 -108.333 83.5 -207h-156v10c0 46.667 -20.167 78.834 -60.5 96.501
s-120.5 26.5 -240.5 26.5c-116 0 -190 -10.667 -222 -32s-48 -66 -48 -134c0 -41.333 3 -70.333 9 -87s16.667 -29.334 32 -38.001c31.333 -16.667 100.666 -26.334 207.999 -29.001c27.333 -0.666992 48.333 -1.33398 63 -2.00098c88 -3.33301 157 -7.83301 207 -13.5
s85.667 -13.5 107 -23.5c46.667 -21.333 79.834 -52 99.501 -92s29.5 -98 29.5 -174c0 -77.333 -9.66699 -136 -29 -176s-54 -75.333 -104 -106c-22.667 -14.667 -59.667 -25.167 -111 -31.5s-122.666 -9.5 -213.999 -9.5c-186.667 0 -310.167 21.5 -370.5 64.5
s-90.5 121.167 -90.5 234.5v28z" />
    <glyph glyph-name="t" unicode="t" horiz-adv-x="1010" 
d="M57 920l0.000976562 133h129v237h156v-237h516v-133h-516v-580c0 -82.667 13.5 -138.834 40.5 -168.501s78.5 -44.5 154.5 -44.5c75.333 0 126.166 14.333 152.499 43s39.5 85.334 39.5 170.001v31h158v-9c0 -148 -24.5 -247.667 -73.5 -299s-150.833 -77 -305.5 -77
c-120.667 0 -204.5 27.167 -251.5 81.5s-70.5 152.5 -70.5 294.5v558h-129z" />
    <glyph glyph-name="u" unicode="u" horiz-adv-x="1180" 
d="M1020 1053l0.000976562 -1053h-150v143c-24.667 -53.333 -65.334 -92.833 -122.001 -118.5s-131.334 -38.5 -224.001 -38.5c-137.333 0 -233.666 27.833 -288.999 83.5s-83 153.167 -83 292.5v691h155v-658c0 -109.333 16.333 -181.333 49 -216s96.334 -52 191.001 -52
c109.333 0 189.166 25 239.499 75s75.5 129.333 75.5 238v613h158z" />
    <glyph glyph-name="v" unicode="v" horiz-adv-x="967" 
d="M14 1053h156l313 -906l314 906h151l-362 -1053h-203z" />
    <glyph glyph-name="w" unicode="w" horiz-adv-x="1597" 
d="M59 1053h146l241 -906l242 906h215l244 -906l242 906h149l-285 -1053h-215l-241 903l-246 -903h-211z" />
    <glyph glyph-name="x" unicode="x" horiz-adv-x="1036" 
d="M35 0l399 563l-348 490h176l254 -369l254 369h176l-344 -490l399 -563h-176l-309 444l-303 -444h-178z" />
    <glyph glyph-name="y" unicode="y" horiz-adv-x="999" 
d="M47 1053l156.001 -0.000976562l313 -906l311 906h154l-397 -1145c-43.333 -124 -87.5 -208 -132.5 -252s-105.5 -66 -181.5 -66c-11.333 0 -23.833 0.5 -37.5 1.5s-28.5 2.83301 -44.5 5.5l1 137c4.66699 -0.666992 10.5 -1.16699 17.5 -1.5s16.833 -0.5 29.5 -0.5
c48 0 85.167 10.833 111.5 32.5s51.166 63.834 74.499 126.501l39 109h-47z" />
    <glyph glyph-name="z" unicode="z" horiz-adv-x="1057" 
d="M119 0v170l651 739h-620v144h811v-146l-674 -766h674v-141h-842z" />
    <glyph glyph-name="braceleft" unicode="{" horiz-adv-x="1024" 
d="M854 1370l-37.002 0.000976562c-87.333 0 -146.333 -16.5 -177 -49.5s-46 -101.167 -46 -204.5v-242c0 -112 -14.5 -192 -43.5 -240s-80.167 -82.667 -153.5 -104c73.333 -20.667 124.5 -55 153.5 -103s43.5 -128.333 43.5 -241v-241c0 -103.333 15 -171.5 45 -204.5
s86.667 -49.5 170 -49.5c4.66699 0 12 0.333008 22 1s17.667 1 23 1v-107h-47c-131.333 0 -220.166 24.167 -266.499 72.5s-69.5 147.166 -69.5 296.499v244c0 102.667 -19 175 -57 217s-103 63 -195 63c-4.66699 0 -11.834 -0.333008 -21.501 -1s-17.5 -1 -23.5 -1v109
c6 0 13.833 -0.333008 23.5 -1s16.834 -1 21.501 -1c92 0 157 21 195 63s57 114.333 57 217v242c0 148.667 23.333 247.667 70 297s135.334 74 266.001 74h47v-107z" />
    <glyph glyph-name="bar" unicode="|" horiz-adv-x="1024" 
d="M567 1565v-2048h-108v2048h108z" />
    <glyph glyph-name="braceright" unicode="}" horiz-adv-x="1024" 
d="M555 1106l-0.00195312 -241.998c0 -102.667 19 -175 57 -217s103 -63 195 -63c4.66699 0 12 0.333008 22 1s17.667 1 23 1v-109c-5.33301 0 -13 0.333008 -23 1s-17.333 1 -22 1c-92 0 -157 -21 -195 -63s-57 -114.333 -57 -217v-244
c0 -148.667 -23.167 -247.334 -69.5 -296.001s-135.166 -73 -266.499 -73h-47v107h39c86.667 0 145.167 16.333 175.5 49s45.5 100.334 45.5 203.001v241c0 114 14.333 194.667 43 242s80 81.333 154 102c-74 21.333 -125.333 55.666 -154 102.999s-43 127.666 -43 240.999
v242c0 104.667 -15 173.5 -45 206.5s-86.667 49.5 -170 49.5c-4.66699 0 -12 -0.333008 -22 -1s-17.667 -1 -23 -1v107h47c130.667 0 219.334 -24.667 266.001 -74s70 -148.333 70 -297z" />
    <glyph glyph-name="asciitilde" unicode="~" horiz-adv-x="1706" 
d="M1530 637c-68 -48 -134.002 -83.833 -198.002 -107.5s-127 -35.5 -189 -35.5c-66 0 -152.667 19 -260 57l-29 10c-3.33301 1.33301 -8.66602 3.33301 -15.999 6c-117.333 42.667 -208.333 64 -273 64c-55.333 0 -113.666 -12.667 -174.999 -38s-132 -66 -212 -122v113
c70.667 48.667 138 85 202 109s125.667 36 185 36c69.333 0 160 -20.333 272 -61c7.33301 -2.66699 13.333 -5 18 -7c6 -2 16.333 -5.66699 31 -11c111.333 -40 197 -60 257 -60c56.667 0 115.667 12.667 177 38s131.333 66 210 122v-113z" />
    <glyph glyph-name="nonbreakingspace" unicode="&#xa0;" horiz-adv-x="1384" 
 />
    <glyph glyph-name="exclamdown" unicode="&#xa1;" horiz-adv-x="516" 
d="M190 1087h138l8 -1087h-156zM180 1489h156v-193h-156v193z" />
    <glyph glyph-name="cent" unicode="&#xa2;" horiz-adv-x="1384" 
d="M444 147l256 777h-100c-107.333 0 -177.833 -18.167 -211.5 -54.5s-50.5 -120.833 -50.5 -253.5v-180c0 -102.667 7.83301 -172.5 23.5 -209.5s43.167 -63.5 82.5 -79.5zM535 -14l-81.999 -248h-144l88 268c-78.667 26 -134.834 68.5 -168.501 127.5
s-50.5 148.167 -50.5 267.5v250c0 154.667 31.167 262.667 93.5 324s171.833 92 328.5 92h148l65 199h143l-73 -222c72 -24 125.5 -64 160.5 -120s53.167 -130.333 54.5 -223h-162c-2 57.333 -11.333 103.333 -28 138s-40 56 -70 64l-256 -776h92
c102 0 171.167 17.5 207.5 52.5s54.5 98.833 54.5 191.5v18h162v-20c0 -136.667 -32.833 -234.667 -98.5 -294s-174.167 -89 -325.5 -89h-139z" />
    <glyph glyph-name="sterling" unicode="&#xa3;" horiz-adv-x="1384" 
d="M115 0v155.999h20c62 0 106.167 19.333 132.5 58s39.5 104 39.5 196v184h-192v143h192v426c0 121.333 36.167 209 108.5 263s190.5 81 354.5 81c173.333 0 297.833 -23.167 373.5 -69.5s113.5 -122.166 113.5 -227.499v-155h-170v92c0 82 -20.833 137 -62.5 165
s-122.5 42 -242.5 42c-62 0 -114.167 -4.16699 -156.5 -12.5s-74.833 -20.5 -97.5 -36.5c-20 -16 -34.167 -36.5 -42.5 -61.5s-12.5 -69.5 -12.5 -133.5v-20v-353h438v-143h-438v-182c0 -71.333 -8 -128.833 -24 -172.5s-39.333 -71.5 -70 -83.5h899v-156h-1163z" />
    <glyph glyph-name="currency" unicode="&#xa4;" horiz-adv-x="1241" 
d="M944 887c0 88.667 -31.333 164.333 -94 227s-138.334 94 -227.001 94c-89.333 0 -166 -31.5 -230 -94.5s-96 -138.5 -96 -226.5c0 -89.333 32 -166 96 -230s140.667 -96 230 -96c88.667 0 164.334 32 227.001 96s94 140.667 94 230zM360 1210
c40 30.667 81.5 53.3301 124.5 67.9971s88.5 22 136.5 22s94.167 -7.5 138.5 -22.5s85.5 -37.5 123.5 -67.5l204 205l66 -65l-205 -205c29.333 -39.333 51.333 -81 66 -125s22 -89 22 -135s-7.33301 -90.667 -22 -134s-36.667 -84.666 -66 -123.999l205 -207l-66 -66
l-204 205c-39.333 -30 -81 -52.5 -125 -67.5s-89.667 -22.5 -137 -22.5s-92.333 7.33301 -135 22s-84.667 37.334 -126 68.001l-204 -205l-66 66l205 207c-30 40.667 -52.5 82.5 -67.5 125.5s-22.5 87.167 -22.5 132.5s7.5 89.833 22.5 133.5s37.5 85.834 67.5 126.501
l-205 205l66 65z" />
    <glyph glyph-name="yen" unicode="&#xa5;" horiz-adv-x="1219" 
d="M690 0h-162v653h-528v123h449l-132 180h-317v123h217l-305 410h194l502 -694l502 694h195l-304 -410h218v-123h-320l-131 -180h451v-123h-529v-653z" />
    <glyph glyph-name="brokenbar" unicode="&#xa6;" horiz-adv-x="1024" 
d="M567 408v-758h-108v758h108zM567 1432v-758h-108v758h108z" />
    <glyph glyph-name="section" unicode="&#xa7;" horiz-adv-x="1118" 
d="M735 860l-297 98c-68.667 -12.667 -121.667 -32.5 -159 -59.5s-56 -58.833 -56 -95.5c0 -33.333 13.167 -62.333 39.5 -87s66.5 -45.667 120.5 -63l297 -96c68.667 13.333 121.667 33.5 159 60.5s56 58.833 56 95.5c0 32.667 -13 61 -39 85s-66.333 44.667 -121 62z
M305 287l-0.000976562 -48.998c0 -44.667 15.5 -75 46.5 -91s98.167 -24 201.5 -24c108.667 0 177.167 9.16699 205.5 27.5s42.5 54.166 42.5 107.499c0 37.333 -7 65.833 -21 85.5s-37.667 34.834 -71 45.501l-373 121c-100 32 -170.5 67.833 -211.5 107.5
s-61.5 90.5 -61.5 152.5c0 61.333 20 112.833 60 154.5s95.333 68.834 166 81.501c-52 18 -89.333 45.167 -112 81.5s-34 87.5 -34 153.5c0 100.667 27.5 170.167 82.5 208.5s160.167 57.5 315.5 57.5c134 0 229.167 -18 285.5 -54s84.5 -95.667 84.5 -179v-47h-157v24
c0 43.333 -15 73.333 -45 90s-90.333 25 -181 25c-98.667 0 -160.5 -7.5 -185.5 -22.5s-37.5 -45.167 -37.5 -90.5c0 -36 6.66699 -62.667 20 -80s38.666 -32.333 75.999 -45l447 -145c68.667 -22.667 120.334 -54.334 155.001 -95.001s52 -90.334 52 -149.001
c0 -62 -20.833 -114 -62.5 -156s-97.5 -67 -167.5 -75c50 -15.333 85.5 -41.333 106.5 -78s31.5 -93.334 31.5 -170.001c0 -105.333 -27.667 -178 -83 -218s-161.666 -60 -318.999 -60c-158 0 -266.5 17.5 -325.5 52.5s-88.5 95.833 -88.5 182.5v70h158z" />
    <glyph glyph-name="dieresis" unicode="&#xa8;" horiz-adv-x="1024" 
d="M602 1253v164h141v-164h-141zM281 1253v164h141v-164h-141z" />
    <glyph glyph-name="copyright" unicode="&#xa9;" horiz-adv-x="1706" 
d="M1073 915c-12 53.333 -37 94.667 -75 124s-85.333 44 -142 44c-81.333 0 -144.666 -31.667 -189.999 -95s-68 -152.333 -68 -267c0 -110.667 23 -197.334 69 -260.001s109 -94 189 -94c59.333 0 109.666 16.833 150.999 50.5s67.333 79.5 78 137.5h115
c-7.33301 -83.333 -43.5 -151.666 -108.5 -204.999s-145.5 -80 -241.5 -80c-118 0 -211 40.667 -279 122s-102 193 -102 335c0 135.333 35.833 244 107.5 326s166.167 123 283.5 123c90 0 165.5 -24 226.5 -72s95.5 -111 103.5 -189h-117zM1505 723.001
c0 88 -16.1689 171.668 -48.502 251.001s-78.833 149.333 -139.5 210c-62.667 62.667 -133.667 110.334 -213 143.001s-163.333 49 -252 49c-88 0 -171 -16 -249 -48s-147.333 -78.667 -208 -140c-62.667 -64 -110.667 -135.833 -144 -215.5s-50 -162.834 -50 -249.501
c0 -86 16.5 -168.333 49.5 -247s80.5 -149.334 142.5 -212.001c62.667 -62 133.334 -109.5 212.001 -142.5s161 -49.5 247 -49.5c86.667 0 170.167 16.667 250.5 50s152.5 81.333 216.5 144c60.667 59.333 106.834 128 138.501 206s47.5 161.667 47.5 251zM851.998 1456
c99.333 0 193.835 -18.5 283.502 -55.5s169.167 -90.167 238.5 -159.5c68 -68 120.167 -146.5 156.5 -235.5s54.5 -183.167 54.5 -282.5c0 -100 -17.833 -193.667 -53.5 -281s-88.167 -165 -157.5 -233c-71.333 -70.667 -152 -124.834 -242 -162.501
s-183.333 -56.5 -280 -56.5s-189.334 18.5 -278.001 55.5s-168 90.833 -238 161.5c-70 69.333 -123.333 148.333 -160 237s-55 181.667 -55 279c0 96.667 18.833 189.834 56.5 279.501s91.834 170.5 162.501 242.5c67.333 68.667 144.666 121 231.999 157
s180.666 54 279.999 54z" />
    <glyph glyph-name="ordfeminine" unicode="&#xaa;" horiz-adv-x="868" 
d="M637 940l-0.000976562 78.002c0 34.667 -19.167 60 -57.5 76s-99.166 24 -182.499 24c-76 0 -126.667 -8.83301 -152 -26.5s-38 -51.834 -38 -102.501c0 -58 13.333 -96.667 40 -116s81 -29 163 -29c74.667 0 131.167 8.16699 169.5 24.5s57.5 40.166 57.5 71.499z
M642.999 829.002c-17.333 -30.667 -45.499 -53.001 -84.499 -67.001s-93.5 -21 -163.5 -21c-124 0 -206.833 16.5 -248.5 49.5s-62.5 94.5 -62.5 184.5c0 53.333 4.66699 94.333 14 123s25 51.667 47 69c19.333 14.667 47.5 25.167 84.5 31.5s90.167 9.5 159.5 9.5
c72.667 0 127.5 -5.5 164.5 -16.5s64.833 -29.167 83.5 -54.5v129c0 60 -12.833 98.833 -38.5 116.5s-87.834 26.5 -186.501 26.5c-72 0 -120.167 -7.16699 -144.5 -21.5s-37.166 -41.166 -38.499 -80.499h-116v16c0 63.333 22 108.5 66 135.5s118.667 40.5 224 40.5
c85.333 0 149.666 -3.33301 192.999 -10s75.333 -17.667 96 -33c22.667 -16 38.667 -36 48 -60s14 -66.667 14 -128v-516h-105z" />
    <glyph glyph-name="guillemotleft" unicode="&#xab;" horiz-adv-x="981" 
d="M516 213h-172l-246 313l246 314h172l-248 -314zM866 213h-172l-245 313l245 314h172l-248 -314z" />
    <glyph glyph-name="logicalnot" unicode="&#xac;" horiz-adv-x="1706" 
d="M1452 858v-502h-96v402h-1102v100h1198z" />
    <glyph glyph-name="sfthyphen" unicode="&#xad;" horiz-adv-x="825" 
d="M133 485v140h559v-140h-559z" />
    <glyph glyph-name="registered" unicode="&#xae;" horiz-adv-x="1706" 
d="M850 1071l-158 0.00195312v-303h158c89.333 0 152 11.167 188 33.5s54 60.166 54 113.499c0 55.333 -19 95.166 -57 119.499s-99.667 36.5 -185 36.5zM874 1157c118.667 0 206.5 -19 263.5 -57s85.5 -96.667 85.5 -176c0 -59.333 -18 -109 -54 -149
s-84.333 -64.333 -145 -73l188 -389h-145l-178 371h-197v-371h-127v844h309zM1505 721.002c0 89.333 -16 173.669 -48 253.002s-78 149.333 -138 210c-62.667 62 -133.834 109.5 -213.501 142.5s-164.167 49.5 -253.5 49.5c-86.667 0 -168.834 -16 -246.501 -48
s-147.167 -78.667 -208.5 -140c-63.333 -64.667 -111.833 -136.834 -145.5 -216.501s-50.5 -162.5 -50.5 -248.5s16.5 -168.333 49.5 -247s80.5 -149.334 142.5 -212.001c62.667 -62 133.334 -109.5 212.001 -142.5s161 -49.5 247 -49.5c86.667 0 170.167 16.667 250.5 50
s152.5 81.333 216.5 144c60.667 59.333 106.834 127.5 138.501 204.5s47.5 160.5 47.5 250.5zM852 1456c101.333 0 196.5 -18.3311 285.5 -54.998s167.833 -90 236.5 -160c68 -68 120.167 -146.5 156.5 -235.5s54.5 -183.167 54.5 -282.5
c0 -100 -17.833 -193.667 -53.5 -281s-88.167 -165 -157.5 -233c-71.333 -70.667 -152 -124.834 -242 -162.501s-183.333 -56.5 -280 -56.5c-98 0 -191.167 18.5 -279.5 55.5s-167.166 90.833 -236.499 161.5c-70 69.333 -123.333 148.333 -160 237s-55 181.667 -55 279
c0 96 18.833 189.167 56.5 279.5s91.834 171.166 162.501 242.499c67.333 68.667 144.666 121 231.999 157s180.666 54 279.999 54z" />
    <glyph glyph-name="macron" unicode="&#xaf;" horiz-adv-x="1024" 
d="M256 1278v117h512v-117h-512z" />
    <glyph glyph-name="degree" unicode="&#xb0;" horiz-adv-x="674" 
d="M545 1174c0 57.333 -20.168 106.333 -60.501 147s-89.166 61 -146.499 61s-106.5 -20.333 -147.5 -61s-61.5 -89.667 -61.5 -147c0 -58 20.333 -107 61 -147s90 -60 148 -60s107 20 147 60s60 89 60 147zM337.999 1452c76.667 0 141.834 -27.166 195.501 -81.499
s80.5 -119.833 80.5 -196.5s-27.167 -142.334 -81.5 -197.001s-119.833 -82 -196.5 -82c-78 0 -143.667 27 -197 81s-80 120 -80 198c0 77.333 27.167 143 81.5 197s120.166 81 197.499 81z" />
    <glyph glyph-name="plusminus" unicode="&#xb1;" horiz-adv-x="1706" 
d="M1452 150v-99h-1198v99h1198zM903 1169v-348h549v-98h-549v-348h-98v348h-551v98h551v348h98z" />
    <glyph glyph-name="twosuperior" unicode="&#xb2;" horiz-adv-x="913" 
d="M98 596l0.000976562 152c0 46 4 82.5 12 109.5s21.333 50.5 40 70.5c16.667 18.667 38.334 34.334 65.001 47.001s69.667 26.334 129 41.001l223 55c35.333 9.33301 63.666 19.166 84.999 29.499s36 21.166 44 32.499c6 7.33301 10.333 18.166 13 32.499
s4 42.166 4 83.499c0 44.667 -3.16699 75.5 -9.5 92.5s-17.166 30.833 -32.499 41.5c-12.667 8.66699 -38.834 15.167 -78.501 19.5s-93.834 6.5 -162.501 6.5c-94 0 -154 -9.5 -180 -28.5s-39 -59.167 -39 -120.5v-54h-113v60c0 88 23.5 149.167 70.5 183.5
s136.167 51.5 267.5 51.5c75.333 0 132.333 -1.66699 171 -5s67.667 -9 87 -17c48.667 -19.333 82 -44.666 100 -75.999s27 -85.333 27 -162c0 -84 -13.667 -142.833 -41 -176.5s-79 -60.167 -155 -79.5l-275 -70c-58.667 -15.333 -96.5 -31.666 -113.5 -48.999
s-25.5 -43.333 -25.5 -78v-98h610v-94h-723z" />
    <glyph glyph-name="threesuperior" unicode="&#xb3;" horiz-adv-x="913" 
d="M96 893l109.003 0.000976562v-80c0 -52.667 15.167 -88.334 45.5 -107.001s101.833 -28 214.5 -28c79.333 0 134 3.5 164 10.5s51.667 19.167 65 36.5c6.66699 9.33301 11.5 23.833 14.5 43.5s4.5 52.834 4.5 99.501c0 55.333 -12.5 92.166 -37.5 110.499
s-69.833 27.5 -134.5 27.5h-150v90h135c65.333 0 109.666 10.167 132.999 30.5s35 63.166 35 128.499c0 45.333 -2.33301 75.666 -7 90.999s-13 27.333 -25 36s-35 15 -69 19s-83.667 6 -149 6c-94 0 -154.333 -8 -181 -24s-40 -47 -40 -93v-82h-110v80
c0 76.667 24.833 131.334 74.5 164.001s134.5 49 254.5 49c76.667 0 134.167 -2 172.5 -6s68.5 -10.667 90.5 -20c37.333 -16.667 63.666 -40.5 78.999 -71.5s23 -78.167 23 -141.5c0 -70.667 -10 -120.334 -30 -149.001s-55.667 -48 -107 -58
c56.667 -10 96.334 -29.167 119.001 -57.5s34 -74.833 34 -139.5c0 -39.333 -2 -72.333 -6 -99s-10.667 -50.334 -20 -71.001c-17.333 -38 -48.5 -64.5 -93.5 -79.5s-123.833 -22.5 -236.5 -22.5c-102.667 0 -172.334 3.83301 -209.001 11.5s-66.667 20.834 -90 39.501
c-24.667 20.667 -42.834 45.834 -54.501 75.501s-17.5 65.834 -17.5 108.501v72z" />
    <glyph glyph-name="acute" unicode="&#xb4;" horiz-adv-x="1024" 
d="M479 1178h-92l209 348h152z" />
    <glyph glyph-name="mu" unicode="&#xb5;" horiz-adv-x="1110" 
d="M344 1065l-125 -592.002c-5.33301 -26 -9.33301 -50.333 -12 -73s-4 -44.667 -4 -66c0 -78 19.333 -138.167 58 -180.5s94.334 -63.5 167.001 -63.5c83.333 0 155 35.833 215 107.5s104.333 175.167 133 310.5l121 557h139l-164 -770c-8 -36.667 -13.667 -65 -17 -85
s-5 -36 -5 -48c0 -22 5.66699 -38.5 17 -49.5s28.333 -16.5 51 -16.5c4.66699 0 10.167 0.166992 16.5 0.5s12.833 0.833008 19.5 1.5l-20 -110c-12.667 -3.33301 -26.334 -6 -41.001 -8s-29.667 -3 -45 -3c-46.667 0 -81.167 12 -103.5 36s-33.5 60.667 -33.5 110v14
c-28 -51.333 -68 -91.166 -120 -119.499s-111.667 -42.5 -179 -42.5c-61.333 0 -115 13.333 -161 40s-82 65.334 -108 116.001l-114 -557h-140l316 1491h139z" />
    <glyph glyph-name="paragraph" unicode="&#xb6;" horiz-adv-x="1024" 
d="M940 1409h-127.001v-1409h-82v1409h-186v-1409h-84v782c-116 5.33301 -207.833 39.5 -275.5 102.5s-101.5 144.833 -101.5 245.5c0 104.667 35.833 189 107.5 253s166.834 96 285.501 96h463v-70z" />
    <glyph glyph-name="periodcentered" unicode="&#xb7;" horiz-adv-x="692" 
d="M227 795c0 32.667 11.667 60.5 35 83.5s51.333 34.5 84 34.5s60.667 -11.5 84 -34.5s35 -50.833 35 -83.5s-11.5 -60.334 -34.5 -83.001s-51.167 -34 -84.5 -34c-32.667 0 -60.667 11.333 -84 34s-35 50.334 -35 83.001z" />
    <glyph glyph-name="cedilla" unicode="&#xb8;" horiz-adv-x="1024" 
d="M522 0v-115h64c63.333 0 104.333 -9 123 -27s28 -63.667 28 -137c0 -80.667 -8.83301 -130.834 -26.5 -150.501s-58.5 -29.5 -122.5 -29.5h-264v88h213c35.333 0 57 4.66699 65 14s12 37 12 83c0 40.667 -3.5 65.834 -10.5 75.501s-29.833 14.5 -68.5 14.5h-78v184h65z
" />
    <glyph glyph-name="onesuperior" unicode="&#xb9;" horiz-adv-x="913" 
d="M483 596v805l-231 -211l-68 59l265 240h141v-893h-107z" />
    <glyph glyph-name="ordmasculine" unicode="&#xba;" horiz-adv-x="868" 
d="M657 1057v127c0 92.667 -12.5 151.667 -37.5 177s-77.833 38 -158.5 38h-55c-80 0 -132.5 -12.5 -157.5 -37.5s-37.5 -84.167 -37.5 -177.5v-127c0 -94.667 12.5 -154.5 37.5 -179.5s77.5 -37.5 157.5 -37.5h55c80 0 132.667 12.833 158 38.5s38 85.167 38 178.5z
M408 741c-118 0 -200.499 21.5 -247.499 64.5s-70.5 118.5 -70.5 226.5v176c0 108.667 23.333 184.334 70 227.001s128.667 64 246 64h55c118 0 200.333 -21.333 247 -64s70 -118.334 70 -227.001v-176c0 -108 -23.333 -183.5 -70 -226.5s-128.334 -64.5 -245.001 -64.5h-55
z" />
    <glyph glyph-name="guillemotright" unicode="&#xbb;" horiz-adv-x="981" 
d="M467 213l246 313l-246 314h170l246 -314l-246 -313h-170zM115 213l247 313l-247 314h172l245 -314l-245 -313h-172z" />
    <glyph glyph-name="onequarter" unicode="&#xbc;" horiz-adv-x="2087" 
d="M1386 283h398v458zM1286 195v106l459 533h143v-551h144v-88h-144v-195h-104v195h-498zM530 -18l869 1525h155l-866 -1525h-158zM461 655v752l-221 -199l-64 58l252 223h135v-834h-102z" />
    <glyph glyph-name="onehalf" unicode="&#xbd;" horiz-adv-x="2087" 
d="M1309 0l-0.00488281 141c0 43.333 3.83301 77.666 11.5 102.999s20.167 47 37.5 65c15.333 17.333 35 31.833 59 43.5s66.333 25.167 127 40.5l211 51c34 8.66699 61.333 17.667 82 27s34.334 19 41.001 29c6.66699 7.33301 11.334 17.666 14.001 30.999
s4 39.666 4 78.999c0 38.667 -3 66.334 -9 83.001s-16.667 30 -32 40c-11.333 8.66699 -35.166 15 -71.499 19s-89.5 6 -159.5 6c-90 0 -147.333 -8.66699 -172 -26s-37 -53.666 -37 -108.999v-54h-106v54c0 83.333 22 141 66 173s129 48 255 48
c70.667 0 124.834 -1.66699 162.501 -5s66.167 -8.66602 85.5 -15.999c46 -18.667 77.667 -42.5 95 -71.5s26 -78.833 26 -149.5c0 -78.667 -13.167 -133.5 -39.5 -164.5s-76.166 -55.167 -149.499 -72.5l-262 -66c-57.333 -16 -93.833 -32.167 -109.5 -48.5
s-23.5 -40.5 -23.5 -72.5v-90h584v-88h-690zM529.995 -18l869 1525h155l-866 -1525h-158zM460.995 655v752l-221 -199l-64 58l252 223h135v-834h-102z" />
    <glyph glyph-name="threequarters" unicode="&#xbe;" horiz-adv-x="2087" 
d="M1386 283h398v458zM1286 195v106l459 533h143v-551h144v-88h-144v-195h-104v195h-498zM530 -18l869 1525h155l-866 -1525h-158zM92 932l105 0.000976562v-74c0 -49.333 14.5 -82.833 43.5 -100.5s96.833 -26.5 203.5 -26.5c75.333 0 127.666 3.33301 156.999 10
s50.333 18.334 63 35.001c6 9.33301 10.167 23.166 12.5 41.499s3.5 48.833 3.5 91.5c0 52 -11.833 86.167 -35.5 102.5s-66.5 24.5 -128.5 24.5h-143v86h131c62 0 104.167 9.66699 126.5 29s33.5 59.666 33.5 120.999c0 41.333 -2.5 69 -7.5 83s-13.833 25.333 -26.5 34
c-10 8 -31.333 14 -64 18s-80 6 -142 6c-89.333 0 -146.833 -7.66699 -172.5 -23s-38.5 -44.333 -38.5 -87v-76h-104v73c0 72 23.5 123.167 70.5 153.5s127.833 45.5 242.5 45.5c72 0 126.5 -1.83301 163.5 -5.5s65.5 -9.83398 85.5 -18.501
c36.667 -14.667 62.334 -36 77.001 -64s22 -72.333 22 -133c0 -66.667 -9.5 -113.167 -28.5 -139.5s-53.167 -44.833 -102.5 -55.5c54.667 -9.33301 92.834 -27.333 114.501 -54s32.5 -70 32.5 -130c0 -36 -1.83301 -66.5 -5.5 -91.5s-9.83398 -47.167 -18.501 -66.5
c-17.333 -35.333 -47.5 -60.166 -90.5 -74.499s-118.167 -21.5 -225.5 -21.5c-98 0 -164.5 3.66699 -199.5 11s-63.833 20 -86.5 38c-23.333 19.333 -40.5 42.833 -51.5 70.5s-16.5 61.5 -16.5 101.5v66z" />
    <glyph glyph-name="questiondown" unicode="&#xbf;" horiz-adv-x="1063" 
d="M680 1489v-191h-166v191h166zM680 1081l0.00195312 -117.997c0 -58.667 -13.833 -106 -41.5 -142s-93.167 -77 -196.5 -123l-5 -2c-99.333 -42.667 -159.666 -79.334 -180.999 -110.001c-12.667 -19.333 -22.334 -47 -29.001 -83s-10 -80 -10 -132
c0 -90.667 16.167 -152.667 48.5 -186s96.166 -50 191.499 -50c103.333 0 176.5 2.66699 219.5 8s72.833 14.333 89.5 27c19.333 14.667 33.333 37.667 42 69s13 76.666 13 135.999c0 22.667 -0.166992 40 -0.5 52s-0.5 23.333 -0.5 34h163v-148
c0 -120.667 -35 -206 -105 -256s-193.333 -75 -370 -75c-176 0 -295.167 28.167 -357.5 84.5s-93.5 159.166 -93.5 308.499c0 123.333 13.333 214.333 40 273s73 103.334 139 134.001c19.333 9.33301 46.666 21.666 81.999 36.999c130.667 56.667 196 119 196 187v75h166z
" />
    <glyph glyph-name="Agrave" unicode="&#xc0;" horiz-adv-x="1417" 
d="M387 528h645l-297 803h-53zM23 0l550 1489h271l553 -1489h-170l-142 381h-753l-139 -381h-170zM742 1618l-269 348h152l209 -348h-92z" />
    <glyph glyph-name="Aacute" unicode="&#xc1;" horiz-adv-x="1417" 
d="M387 528h645l-297 803h-53zM23 0l550 1489h271l553 -1489h-170l-142 381h-753l-139 -381h-170zM676 1618h-92l209 348h152z" />
    <glyph glyph-name="Acircumflex" unicode="&#xc2;" horiz-adv-x="1417" 
d="M387 528h645l-297 803h-53zM23 0l550 1489h271l553 -1489h-170l-142 381h-753l-139 -381h-170zM433 1618l200 348h152l200 -348h-92l-184 262l-184 -262h-92z" />
    <glyph glyph-name="Atilde" unicode="&#xc3;" horiz-adv-x="1417" 
d="M387 528h645l-297 803h-53zM23 0l550 1489h271l553 -1489h-170l-142 381h-753l-139 -381h-170zM998 1880c-17.333 -60 -42.002 -105 -74.002 -135s-71 -45 -117 -45c-9.33301 0 -19.5 0.833008 -30.5 2.5s-22.833 4.16699 -35.5 7.5l-95 28c-12 4 -22 6.83301 -30 8.5
s-16 2.5 -24 2.5c-18.667 0 -36 -6.33301 -52 -19s-29.333 -30.334 -40 -53.001h-80c14.667 58 38.667 102.5 72 133.5s74.333 46.5 123 46.5c10.667 0 20.334 -0.666992 29.001 -2s16.667 -3.33301 24 -6l97 -31c8 -2.66699 17 -5 27 -7s19.333 -3 28 -3
c22.667 0 41.834 5.83301 57.501 17.5s28.5 29.834 38.5 54.501h82z" />
    <glyph glyph-name="Adieresis" unicode="&#xc4;" horiz-adv-x="1417" 
d="M387 528h645l-297 803h-53zM23 0l550 1489h271l553 -1489h-170l-142 381h-753l-139 -381h-170zM799 1693v164h141v-164h-141zM478 1693v164h141v-164h-141z" />
    <glyph glyph-name="Aring" unicode="&#xc5;" horiz-adv-x="1417" 
d="M563 1786c0 -42 14.667 -77.5 44 -106.5s65.333 -43.5 108 -43.5c41.333 0 76.5 14.5 105.5 43.5s43.5 64.5 43.5 106.5s-14.333 77.333 -43 106s-64 43 -106 43c-42.667 0 -78.667 -14.333 -108 -43s-44 -64 -44 -106zM473 1786c0 68 23.168 125.332 69.501 171.999
s103.166 70 170.499 70s124.333 -23.5 171 -70.5s70 -104.167 70 -171.5s-23.333 -124.166 -70 -170.499s-103.667 -69.5 -171 -69.5c-68 0 -125 23 -171 69s-69 103 -69 171zM387.001 527.999h645l-297 803h-53zM23.001 -0.000976562l550 1489h271l553 -1489h-170l-142 381
h-753l-139 -381h-170z" />
    <glyph glyph-name="AE" unicode="&#xc6;" horiz-adv-x="2079" 
d="M301 528h653v803h-209zM954 0v371h-741l-203 -371h-176l823 1489h1338v-158h-887v-487h862v-152h-862v-536h887v-156h-1041z" />
    <glyph glyph-name="Ccedilla" unicode="&#xc7;" horiz-adv-x="1399" 
d="M133 997c0 190.667 36.501 323.332 109.501 397.999s201.833 112 386.5 112h174c183.333 0 312 -32.167 386 -96.5s111 -173.5 111 -327.5v-65h-170v41c0 112.667 -23 189.667 -69 231s-136 62 -270 62h-115c-90 0 -155.5 -5.5 -196.5 -16.5s-75.167 -29.5 -102.5 -55.5
c-27.333 -25.333 -46.5 -58.5 -57.5 -99.5s-16.5 -115.833 -16.5 -224.5v-424c0 -108 5.5 -182.5 16.5 -223.5s30.167 -74.167 57.5 -99.5c27.333 -26 60.5 -44.5 99.5 -55.5s105.5 -16.5 199.5 -16.5h115c137.333 0 228.666 21.667 273.999 65s68 126.333 68 249
c0 18.667 -0.166992 33 -0.5 43s-0.833008 19.333 -1.5 28h169v-98c0 -165.333 -35.833 -280.333 -107.5 -345s-201.5 -97 -389.5 -97h-174c-184.667 0 -313.5 37.333 -386.5 112s-109.5 207.334 -109.5 398.001v505zM735.001 -0.00195312v-115h64
c63.333 0 104.333 -9 123 -27s28 -63.667 28 -137c0 -80.667 -8.83301 -130.834 -26.5 -150.501s-58.5 -29.5 -122.5 -29.5h-264v88h213c35.333 0 57 4.66699 65 14s12 37 12 83c0 40.667 -3.5 65.834 -10.5 75.501s-29.833 14.5 -68.5 14.5h-78v184h65z" />
    <glyph glyph-name="Egrave" unicode="&#xc8;" horiz-adv-x="1309" 
d="M180 0v1489h1045v-158h-881v-487h856v-152h-856v-536h881v-156h-1045zM766 1618l-269 348h152l209 -348h-92z" />
    <glyph glyph-name="Eacute" unicode="&#xc9;" horiz-adv-x="1309" 
d="M180 0v1489h1045v-158h-881v-487h856v-152h-856v-536h881v-156h-1045zM700 1618h-92l209 348h152z" />
    <glyph glyph-name="Ecircumflex" unicode="&#xca;" horiz-adv-x="1309" 
d="M180 0v1489h1045v-158h-881v-487h856v-152h-856v-536h881v-156h-1045zM457 1618l200 348h152l200 -348h-92l-184 262l-184 -262h-92z" />
    <glyph glyph-name="Edieresis" unicode="&#xcb;" horiz-adv-x="1309" 
d="M180 0v1489h1045v-158h-881v-487h856v-152h-856v-536h881v-156h-1045zM823 1693v164h141v-164h-141zM502 1693v164h141v-164h-141z" />
    <glyph glyph-name="Igrave" unicode="&#xcc;" horiz-adv-x="526" 
d="M180 0v1489h166v-1489h-166zM297 1618l-269 348h152l209 -348h-92z" />
    <glyph glyph-name="Iacute" unicode="&#xcd;" horiz-adv-x="526" 
d="M180 0v1489h166v-1489h-166zM231 1618h-92l209 348h152z" />
    <glyph glyph-name="Icircumflex" unicode="&#xce;" horiz-adv-x="526" 
d="M180 0v1489h166v-1489h-166zM-12 1618l200 348h152l200 -348h-92l-184 262l-184 -262h-92z" />
    <glyph glyph-name="Idieresis" unicode="&#xcf;" horiz-adv-x="526" 
d="M180 0v1489h166v-1489h-166zM354 1693v164h141v-164h-141zM33 1693v164h141v-164h-141z" />
    <glyph glyph-name="Eth" unicode="&#xd0;" horiz-adv-x="1583" 
d="M391 147l531 0.000976562c142 0 237.167 24.167 285.5 72.5s72.5 141.166 72.5 278.499v481c0 144.667 -24 241.167 -72 289.5s-143.333 72.5 -286 72.5h-531v-489h447v-143h-447v-562zM227 0.000976562v709h-227v143h227v637h719c186.667 0 317.667 -37 393 -111
s113 -203 113 -387v-491c0 -184.667 -37.667 -314.167 -113 -388.5s-206.333 -111.5 -393 -111.5h-719z" />
    <glyph glyph-name="Ntilde" unicode="&#xd1;" horiz-adv-x="1587" 
d="M180 0v1489h254l807 -1329v1329h164v-1489h-254l-807 1331v-1331h-164zM1104 1880c-17.333 -60 -42.002 -105 -74.002 -135s-71 -45 -117 -45c-9.33301 0 -19.5 0.833008 -30.5 2.5s-22.833 4.16699 -35.5 7.5l-95 28c-12 4 -22 6.83301 -30 8.5s-16 2.5 -24 2.5
c-18.667 0 -36 -6.33301 -52 -19s-29.333 -30.334 -40 -53.001h-80c14.667 58 38.667 102.5 72 133.5s74.333 46.5 123 46.5c10.667 0 20.334 -0.666992 29.001 -2s16.667 -3.33301 24 -6l97 -31c8 -2.66699 17 -5 27 -7s19.333 -3 28 -3
c22.667 0 41.834 5.83301 57.501 17.5s28.5 29.834 38.5 54.501h82z" />
    <glyph glyph-name="Ograve" unicode="&#xd2;" horiz-adv-x="1526" 
d="M809 1352l-92.002 -0.000976562c-104.667 0 -178.667 -5.66699 -222 -17s-80.666 -30.333 -111.999 -57c-29.333 -25.333 -50 -59.5 -62 -102.5s-18 -116.833 -18 -221.5v-422c0 -104 6 -177.167 18 -219.5s32.667 -76.166 62 -101.499
c31.333 -26.667 68.666 -45.667 111.999 -57s117.333 -17 222 -17h92c104.667 0 179 5.66699 223 17s81.667 30.333 113 57c28.667 24.667 48.834 57.667 60.501 99s17.5 115.333 17.5 222v424c0 104.667 -6 178.5 -18 221.5s-32.667 77.167 -62 102.5
c-30.667 26 -67.667 44.5 -111 55.5s-117.666 16.5 -222.999 16.5zM132.998 996.999c0 190 39.332 322.5 117.999 397.5s218.334 112.5 419.001 112.5h188c202.667 0 342.834 -37 420.501 -111s116.5 -207 116.5 -399v-505c0 -190.667 -39.5 -323.334 -118.5 -398.001
s-218.5 -112 -418.5 -112h-188c-200.667 0 -340.334 37.333 -419.001 112s-118 207.334 -118 398.001v505zM796.997 1618l-269 348h152l209 -348h-92z" />
    <glyph glyph-name="Oacute" unicode="&#xd3;" horiz-adv-x="1526" 
d="M809 1352l-92.002 -0.000976562c-104.667 0 -178.667 -5.66699 -222 -17s-80.666 -30.333 -111.999 -57c-29.333 -25.333 -50 -59.5 -62 -102.5s-18 -116.833 -18 -221.5v-422c0 -104 6 -177.167 18 -219.5s32.667 -76.166 62 -101.499
c31.333 -26.667 68.666 -45.667 111.999 -57s117.333 -17 222 -17h92c104.667 0 179 5.66699 223 17s81.667 30.333 113 57c28.667 24.667 48.834 57.667 60.501 99s17.5 115.333 17.5 222v424c0 104.667 -6 178.5 -18 221.5s-32.667 77.167 -62 102.5
c-30.667 26 -67.667 44.5 -111 55.5s-117.666 16.5 -222.999 16.5zM132.998 996.999c0 190 39.332 322.5 117.999 397.5s218.334 112.5 419.001 112.5h188c202.667 0 342.834 -37 420.501 -111s116.5 -207 116.5 -399v-505c0 -190.667 -39.5 -323.334 -118.5 -398.001
s-218.5 -112 -418.5 -112h-188c-200.667 0 -340.334 37.333 -419.001 112s-118 207.334 -118 398.001v505zM730.997 1618h-92l209 348h152z" />
    <glyph glyph-name="Ocircumflex" unicode="&#xd4;" horiz-adv-x="1526" 
d="M809 1352l-92.002 -0.000976562c-104.667 0 -178.667 -5.66699 -222 -17s-80.666 -30.333 -111.999 -57c-29.333 -25.333 -50 -59.5 -62 -102.5s-18 -116.833 -18 -221.5v-422c0 -104 6 -177.167 18 -219.5s32.667 -76.166 62 -101.499
c31.333 -26.667 68.666 -45.667 111.999 -57s117.333 -17 222 -17h92c104.667 0 179 5.66699 223 17s81.667 30.333 113 57c28.667 24.667 48.834 57.667 60.501 99s17.5 115.333 17.5 222v424c0 104.667 -6 178.5 -18 221.5s-32.667 77.167 -62 102.5
c-30.667 26 -67.667 44.5 -111 55.5s-117.666 16.5 -222.999 16.5zM132.998 996.999c0 190 39.332 322.5 117.999 397.5s218.334 112.5 419.001 112.5h188c202.667 0 342.834 -37 420.501 -111s116.5 -207 116.5 -399v-505c0 -190.667 -39.5 -323.334 -118.5 -398.001
s-218.5 -112 -418.5 -112h-188c-200.667 0 -340.334 37.333 -419.001 112s-118 207.334 -118 398.001v505zM487.997 1618l200 348h152l200 -348h-92l-184 262l-184 -262h-92z" />
    <glyph glyph-name="Otilde" unicode="&#xd5;" horiz-adv-x="1526" 
d="M809 1352l-92.002 -0.000976562c-104.667 0 -178.667 -5.66699 -222 -17s-80.666 -30.333 -111.999 -57c-29.333 -25.333 -50 -59.5 -62 -102.5s-18 -116.833 -18 -221.5v-422c0 -104 6 -177.167 18 -219.5s32.667 -76.166 62 -101.499
c31.333 -26.667 68.666 -45.667 111.999 -57s117.333 -17 222 -17h92c104.667 0 179 5.66699 223 17s81.667 30.333 113 57c28.667 24.667 48.834 57.667 60.501 99s17.5 115.333 17.5 222v424c0 104.667 -6 178.5 -18 221.5s-32.667 77.167 -62 102.5
c-30.667 26 -67.667 44.5 -111 55.5s-117.666 16.5 -222.999 16.5zM132.998 996.999c0 190 39.332 322.5 117.999 397.5s218.334 112.5 419.001 112.5h188c202.667 0 342.834 -37 420.501 -111s116.5 -207 116.5 -399v-505c0 -190.667 -39.5 -323.334 -118.5 -398.001
s-218.5 -112 -418.5 -112h-188c-200.667 0 -340.334 37.333 -419.001 112s-118 207.334 -118 398.001v505zM1053 1880c-17.333 -60 -42.002 -105 -74.002 -135s-71 -45 -117 -45c-9.33301 0 -19.5 0.833008 -30.5 2.5s-22.833 4.16699 -35.5 7.5l-95 28
c-12 4 -22 6.83301 -30 8.5s-16 2.5 -24 2.5c-18.667 0 -36 -6.33301 -52 -19s-29.333 -30.334 -40 -53.001h-80c14.667 58 38.667 102.5 72 133.5s74.333 46.5 123 46.5c10.667 0 20.334 -0.666992 29.001 -2s16.667 -3.33301 24 -6l97 -31c8 -2.66699 17 -5 27 -7
s19.333 -3 28 -3c22.667 0 41.834 5.83301 57.501 17.5s28.5 29.834 38.5 54.501h82z" />
    <glyph glyph-name="Odieresis" unicode="&#xd6;" horiz-adv-x="1526" 
d="M809 1352l-92.002 -0.000976562c-104.667 0 -178.667 -5.66699 -222 -17s-80.666 -30.333 -111.999 -57c-29.333 -25.333 -50 -59.5 -62 -102.5s-18 -116.833 -18 -221.5v-422c0 -104 6 -177.167 18 -219.5s32.667 -76.166 62 -101.499
c31.333 -26.667 68.666 -45.667 111.999 -57s117.333 -17 222 -17h92c104.667 0 179 5.66699 223 17s81.667 30.333 113 57c28.667 24.667 48.834 57.667 60.501 99s17.5 115.333 17.5 222v424c0 104.667 -6 178.5 -18 221.5s-32.667 77.167 -62 102.5
c-30.667 26 -67.667 44.5 -111 55.5s-117.666 16.5 -222.999 16.5zM132.998 996.999c0 190 39.332 322.5 117.999 397.5s218.334 112.5 419.001 112.5h188c202.667 0 342.834 -37 420.501 -111s116.5 -207 116.5 -399v-505c0 -190.667 -39.5 -323.334 -118.5 -398.001
s-218.5 -112 -418.5 -112h-188c-200.667 0 -340.334 37.333 -419.001 112s-118 207.334 -118 398.001v505zM853.997 1693v164h141v-164h-141zM532.997 1693v164h141v-164h-141z" />
    <glyph glyph-name="multiply" unicode="&#xd7;" horiz-adv-x="1706" 
d="M856 680l481 481l70 -69l-481 -482l481 -481l-70 -70l-481 482l-481 -482l-70 70l481 481l-481 482l70 69z" />
    <glyph glyph-name="Oslash" unicode="&#xd8;" horiz-adv-x="1526" 
d="M319 260l781.001 1071c-22 7.33301 -52.5 12.666 -91.5 15.999s-93.167 5 -162.5 5h-166c-95.333 0 -163 -5 -203 -15s-74 -27 -102 -51c-26.667 -22 -45.334 -52.167 -56.001 -90.5s-16 -106.5 -16 -204.5v-493c0 -48 1.33301 -91.333 4 -130s6.66699 -74.667 12 -108z
M1210 1229l-784.002 -1073c30 -6.66699 64 -11.5 102 -14.5s88.667 -4.5 152 -4.5h166c95.333 0 162.833 5 202.5 15s73.834 27 102.501 51c26.667 22 45.334 52.167 56.001 90.5s16 106.5 16 204.5v493c0 50 -1 94.667 -3 134s-5.33301 74 -10 104zM132.999 997.001
c0 190 39.3311 322.501 117.998 397.501s218.334 112.5 419.001 112.5h188c86 0 153.333 -4 202 -12s92 -21 130 -39l86 119l119 -90l-88 -121c30.667 -40 53 -87.833 67 -143.5s21 -130.167 21 -223.5v-505c0 -190.667 -39.5 -323.334 -118.5 -398.001
s-218.5 -112 -418.5 -112h-188c-92 0 -162.167 4 -210.5 12s-88.166 21.667 -119.499 41l-88 -121l-121 92l92 125c-32 33.333 -55 76.833 -69 130.5s-21 130.5 -21 230.5v505z" />
    <glyph glyph-name="Ugrave" unicode="&#xd9;" horiz-adv-x="1532" 
d="M166 1489h166.002v-977c0 -96 5.16699 -163 15.5 -201s28.166 -68.667 53.499 -92c26.667 -24 58.5 -40.833 95.5 -50.5s100.833 -14.5 191.5 -14.5h156c91.333 0 155.666 4.83301 192.999 14.5s69.333 26.5 96 50.5c24.667 22.667 42 53 52 91s15 105.333 15 202v977
h166v-997c0 -190 -37.5 -322.5 -112.5 -397.5s-207.5 -112.5 -397.5 -112.5h-180c-190 0 -322.5 37.5 -397.5 112.5s-112.5 207.5 -112.5 397.5v997zM799.002 1618l-269 348h152l209 -348h-92z" />
    <glyph glyph-name="Uacute" unicode="&#xda;" horiz-adv-x="1532" 
d="M166 1489h166.002v-977c0 -96 5.16699 -163 15.5 -201s28.166 -68.667 53.499 -92c26.667 -24 58.5 -40.833 95.5 -50.5s100.833 -14.5 191.5 -14.5h156c91.333 0 155.666 4.83301 192.999 14.5s69.333 26.5 96 50.5c24.667 22.667 42 53 52 91s15 105.333 15 202v977
h166v-997c0 -190 -37.5 -322.5 -112.5 -397.5s-207.5 -112.5 -397.5 -112.5h-180c-190 0 -322.5 37.5 -397.5 112.5s-112.5 207.5 -112.5 397.5v997zM733.002 1618h-92l209 348h152z" />
    <glyph glyph-name="Ucircumflex" unicode="&#xdb;" horiz-adv-x="1532" 
d="M166 1489h166.002v-977c0 -96 5.16699 -163 15.5 -201s28.166 -68.667 53.499 -92c26.667 -24 58.5 -40.833 95.5 -50.5s100.833 -14.5 191.5 -14.5h156c91.333 0 155.666 4.83301 192.999 14.5s69.333 26.5 96 50.5c24.667 22.667 42 53 52 91s15 105.333 15 202v977
h166v-997c0 -190 -37.5 -322.5 -112.5 -397.5s-207.5 -112.5 -397.5 -112.5h-180c-190 0 -322.5 37.5 -397.5 112.5s-112.5 207.5 -112.5 397.5v997zM490.002 1618l200 348h152l200 -348h-92l-184 262l-184 -262h-92z" />
    <glyph glyph-name="Udieresis" unicode="&#xdc;" horiz-adv-x="1532" 
d="M166 1489h166.002v-977c0 -96 5.16699 -163 15.5 -201s28.166 -68.667 53.499 -92c26.667 -24 58.5 -40.833 95.5 -50.5s100.833 -14.5 191.5 -14.5h156c91.333 0 155.666 4.83301 192.999 14.5s69.333 26.5 96 50.5c24.667 22.667 42 53 52 91s15 105.333 15 202v977
h166v-997c0 -190 -37.5 -322.5 -112.5 -397.5s-207.5 -112.5 -397.5 -112.5h-180c-190 0 -322.5 37.5 -397.5 112.5s-112.5 207.5 -112.5 397.5v997zM856.002 1693v164h141v-164h-141zM535.002 1693v164h141v-164h-141z" />
    <glyph glyph-name="Yacute" unicode="&#xdd;" horiz-adv-x="1219" 
d="M690 0h-162v659l-616 830h194l502 -694l502 694h195l-615 -827v-662zM577 1618h-92l209 348h152z" />
    <glyph glyph-name="Thorn" unicode="&#xde;" horiz-adv-x="1341" 
d="M344 1042v-596.001h461c110.667 0 183.334 13.833 218.001 41.5s52 76.834 52 147.501v219c0 72.667 -16.833 122.167 -50.5 148.5s-106.834 39.5 -219.501 39.5h-461zM180 1489h164v-289h463c167.333 0 282.5 -24.833 345.5 -74.5s94.5 -138.167 94.5 -265.5v-227
c0 -130 -31 -219.833 -93 -269.5s-177.667 -74.5 -347 -74.5h-463v-289h-164v1489z" />
    <glyph glyph-name="germandbls" unicode="&#xdf;" horiz-adv-x="1081" 
d="M127 0v1069c0 156.667 29 264.834 87 324.501s161.333 89.5 310 89.5c146.667 0 251 -29.167 313 -87.5s93 -155.5 93 -291.5c0 -78.667 -13.333 -139.334 -40 -182.001s-70.667 -75 -132 -97c86 -18 146.667 -56.333 182 -115s53 -153.334 53 -284.001
c0 -161.333 -27.667 -275.333 -83 -342s-148.333 -100 -279 -100c-22.667 0 -46.834 1 -72.501 3s-53.5 5 -83.5 9l1 143c20 -4.66699 40.333 -8.16699 61 -10.5s42.334 -3.5 65.001 -3.5c90 0 150.333 19.5 181 58.5s46 119.833 46 242.5
c0 138.667 -16.167 226.167 -48.5 262.5s-95.833 54.5 -190.5 54.5h-115v129h88c78 0 132.333 17.667 163 53s46 99 46 191c0 86.667 -17.5 146.167 -52.5 178.5s-100.833 48.5 -197.5 48.5c-94.667 0 -158.167 -17.333 -190.5 -52s-48.5 -114 -48.5 -238v-1053h-156z" />
    <glyph glyph-name="agrave" unicode="&#xe0;" 
d="M850 268l0.000976562 111.002c0 50 -25.5 86.667 -76.5 110s-132.167 35 -243.5 35c-102 0 -170.167 -12.833 -204.5 -38.5s-51.5 -74.834 -51.5 -147.501c0 -82.667 18.167 -137.834 54.5 -165.501s109.166 -41.5 218.499 -41.5c98 0 173 11.833 225 35.5
s78 57.5 78 101.5zM858.001 111.002c-24 -44 -62.166 -75.832 -114.499 -95.499s-124.833 -29.5 -217.5 -29.5c-164.667 0 -275 23.5 -331 70.5s-84 134.5 -84 262.5c0 74 6.5 132 19.5 174s34.5 75.667 64.5 101c25.333 21.333 62.5 36.5 111.5 45.5s119.5 13.5 211.5 13.5
c95.333 0 168.166 -7.83301 218.499 -23.5s88.166 -41.834 113.499 -78.501v182c0 86 -16.667 141.667 -50 167s-117 38 -251 38c-97.333 0 -162 -10.167 -194 -30.5s-48.667 -58.5 -50 -114.5h-155v24c0 90 29.167 154.167 87.5 192.5s158.833 57.5 301.5 57.5
c111.333 0 196 -4.66699 254 -14s101 -24.333 129 -45c30.667 -24 52.334 -53.667 65.001 -89s19 -96 19 -182v-737h-142zM613.002 1178l-269 348h152l209 -348h-92z" />
    <glyph glyph-name="aacute" unicode="&#xe1;" 
d="M850 268l0.000976562 111.002c0 50 -25.5 86.667 -76.5 110s-132.167 35 -243.5 35c-102 0 -170.167 -12.833 -204.5 -38.5s-51.5 -74.834 -51.5 -147.501c0 -82.667 18.167 -137.834 54.5 -165.501s109.166 -41.5 218.499 -41.5c98 0 173 11.833 225 35.5
s78 57.5 78 101.5zM858.001 111.002c-24 -44 -62.166 -75.832 -114.499 -95.499s-124.833 -29.5 -217.5 -29.5c-164.667 0 -275 23.5 -331 70.5s-84 134.5 -84 262.5c0 74 6.5 132 19.5 174s34.5 75.667 64.5 101c25.333 21.333 62.5 36.5 111.5 45.5s119.5 13.5 211.5 13.5
c95.333 0 168.166 -7.83301 218.499 -23.5s88.166 -41.834 113.499 -78.501v182c0 86 -16.667 141.667 -50 167s-117 38 -251 38c-97.333 0 -162 -10.167 -194 -30.5s-48.667 -58.5 -50 -114.5h-155v24c0 90 29.167 154.167 87.5 192.5s158.833 57.5 301.5 57.5
c111.333 0 196 -4.66699 254 -14s101 -24.333 129 -45c30.667 -24 52.334 -53.667 65.001 -89s19 -96 19 -182v-737h-142zM547.002 1178h-92l209 348h152z" />
    <glyph glyph-name="acircumflex" unicode="&#xe2;" 
d="M850 268l0.000976562 111.002c0 50 -25.5 86.667 -76.5 110s-132.167 35 -243.5 35c-102 0 -170.167 -12.833 -204.5 -38.5s-51.5 -74.834 -51.5 -147.501c0 -82.667 18.167 -137.834 54.5 -165.501s109.166 -41.5 218.499 -41.5c98 0 173 11.833 225 35.5
s78 57.5 78 101.5zM858.001 111.002c-24 -44 -62.166 -75.832 -114.499 -95.499s-124.833 -29.5 -217.5 -29.5c-164.667 0 -275 23.5 -331 70.5s-84 134.5 -84 262.5c0 74 6.5 132 19.5 174s34.5 75.667 64.5 101c25.333 21.333 62.5 36.5 111.5 45.5s119.5 13.5 211.5 13.5
c95.333 0 168.166 -7.83301 218.499 -23.5s88.166 -41.834 113.499 -78.501v182c0 86 -16.667 141.667 -50 167s-117 38 -251 38c-97.333 0 -162 -10.167 -194 -30.5s-48.667 -58.5 -50 -114.5h-155v24c0 90 29.167 154.167 87.5 192.5s158.833 57.5 301.5 57.5
c111.333 0 196 -4.66699 254 -14s101 -24.333 129 -45c30.667 -24 52.334 -53.667 65.001 -89s19 -96 19 -182v-737h-142zM304.002 1178l200 348h152l200 -348h-92l-184 262l-184 -262h-92z" />
    <glyph glyph-name="atilde" unicode="&#xe3;" 
d="M850 268l0.000976562 111.002c0 50 -25.5 86.667 -76.5 110s-132.167 35 -243.5 35c-102 0 -170.167 -12.833 -204.5 -38.5s-51.5 -74.834 -51.5 -147.501c0 -82.667 18.167 -137.834 54.5 -165.501s109.166 -41.5 218.499 -41.5c98 0 173 11.833 225 35.5
s78 57.5 78 101.5zM858.001 111.002c-24 -44 -62.166 -75.832 -114.499 -95.499s-124.833 -29.5 -217.5 -29.5c-164.667 0 -275 23.5 -331 70.5s-84 134.5 -84 262.5c0 74 6.5 132 19.5 174s34.5 75.667 64.5 101c25.333 21.333 62.5 36.5 111.5 45.5s119.5 13.5 211.5 13.5
c95.333 0 168.166 -7.83301 218.499 -23.5s88.166 -41.834 113.499 -78.501v182c0 86 -16.667 141.667 -50 167s-117 38 -251 38c-97.333 0 -162 -10.167 -194 -30.5s-48.667 -58.5 -50 -114.5h-155v24c0 90 29.167 154.167 87.5 192.5s158.833 57.5 301.5 57.5
c111.333 0 196 -4.66699 254 -14s101 -24.333 129 -45c30.667 -24 52.334 -53.667 65.001 -89s19 -96 19 -182v-737h-142zM869.002 1440c-17.333 -60 -42.002 -105 -74.002 -135s-71 -45 -117 -45c-9.33301 0 -19.5 0.833008 -30.5 2.5s-22.833 4.16699 -35.5 7.5l-95 28
c-12 4 -22 6.83301 -30 8.5s-16 2.5 -24 2.5c-18.667 0 -36 -6.33301 -52 -19s-29.333 -30.334 -40 -53.001h-80c14.667 58 38.667 102.5 72 133.5s74.333 46.5 123 46.5c10.667 0 20.334 -0.666992 29.001 -2s16.667 -3.33301 24 -6l97 -31c8 -2.66699 17 -5 27 -7
s19.333 -3 28 -3c22.667 0 41.834 5.83301 57.501 17.5s28.5 29.834 38.5 54.501h82z" />
    <glyph glyph-name="adieresis" unicode="&#xe4;" 
d="M850 268l0.000976562 111.002c0 50 -25.5 86.667 -76.5 110s-132.167 35 -243.5 35c-102 0 -170.167 -12.833 -204.5 -38.5s-51.5 -74.834 -51.5 -147.501c0 -82.667 18.167 -137.834 54.5 -165.501s109.166 -41.5 218.499 -41.5c98 0 173 11.833 225 35.5
s78 57.5 78 101.5zM858.001 111.002c-24 -44 -62.166 -75.832 -114.499 -95.499s-124.833 -29.5 -217.5 -29.5c-164.667 0 -275 23.5 -331 70.5s-84 134.5 -84 262.5c0 74 6.5 132 19.5 174s34.5 75.667 64.5 101c25.333 21.333 62.5 36.5 111.5 45.5s119.5 13.5 211.5 13.5
c95.333 0 168.166 -7.83301 218.499 -23.5s88.166 -41.834 113.499 -78.501v182c0 86 -16.667 141.667 -50 167s-117 38 -251 38c-97.333 0 -162 -10.167 -194 -30.5s-48.667 -58.5 -50 -114.5h-155v24c0 90 29.167 154.167 87.5 192.5s158.833 57.5 301.5 57.5
c111.333 0 196 -4.66699 254 -14s101 -24.333 129 -45c30.667 -24 52.334 -53.667 65.001 -89s19 -96 19 -182v-737h-142zM670.002 1253v164h141v-164h-141zM349.002 1253v164h141v-164h-141z" />
    <glyph glyph-name="aring" unicode="&#xe5;" 
d="M444 1366c0 -42 14.5 -77.333 43.5 -106s64.5 -43 106.5 -43c41.333 0 76.5 14.5 105.5 43.5s43.5 64.167 43.5 105.5c0 42 -14.333 77.5 -43 106.5s-64 43.5 -106 43.5s-77.5 -14.5 -106.5 -43.5s-43.5 -64.5 -43.5 -106.5zM352 1366
c0 67.333 23.333 124.166 70 170.499s104 69.5 172 69.5s125.333 -23.167 172 -69.5s70 -103.166 70 -170.499s-23.333 -124.166 -70 -170.499s-104 -69.5 -172 -69.5s-125.333 23.167 -172 69.5s-70 103.166 -70 170.499zM858 111
c-24 -44 -62.1641 -75.832 -114.497 -95.499s-124.833 -29.5 -217.5 -29.5c-164.667 0 -275 23.5 -331 70.5s-84 134.5 -84 262.5c0 74 6.5 132 19.5 174s34.5 75.667 64.5 101c25.333 21.333 62.5 36.5 111.5 45.5s119.5 13.5 211.5 13.5
c95.333 0 168.166 -7.83301 218.499 -23.5s88.166 -41.834 113.499 -78.501v182c0 86 -16.667 141.667 -50 167s-117 38 -251 38c-97.333 0 -162 -10.167 -194 -30.5s-48.667 -58.5 -50 -114.5h-155v20c0 93.333 29.167 159 87.5 197s164.166 57 317.499 57
c126.667 0 218.5 -7 275.5 -21s98.167 -37.667 123.5 -71c18.667 -24 32 -50.833 40 -80.5s12 -75.167 12 -136.5v-21v-737h-142zM850.003 268.001l0.000976562 111.002c0 50 -25.5 86.667 -76.5 110s-132.167 35 -243.5 35c-102 0 -170.167 -12.833 -204.5 -38.5
s-51.5 -74.834 -51.5 -147.501c0 -82.667 18.167 -137.834 54.5 -165.501s109.166 -41.5 218.499 -41.5c98 0 173 11.833 225 35.5s78 57.5 78 101.5z" />
    <glyph glyph-name="ae" unicode="&#xe6;" horiz-adv-x="1878" 
d="M1001 629h598v41c0 98.667 -17.5 165.667 -52.5 201s-104.833 53 -209.5 53h-73c-104.667 0 -174.667 -17.667 -210 -53s-53 -102.333 -53 -201v-41zM150 793l-0.00195312 20c0 94 29 159.833 87 197.5s164 56.5 318 56.5c125.333 0 214.833 -8.66699 268.5 -26
s91.834 -47 114.501 -89c30.667 42 69.834 71.667 117.501 89s116.5 26 206.5 26h75c156.667 0 266.167 -30.667 328.5 -92s93.5 -169.333 93.5 -324v-159l-758 -1c-0.666992 -11.333 -1.16699 -23.166 -1.5 -35.499s-0.5 -29.833 -0.5 -52.5
c0 -109.333 17.5 -182.666 52.5 -219.999s105.833 -56 212.5 -56h73c93.333 0 158.166 13.333 194.499 40s57.5 74 63.5 142h162c-8 -114 -44.667 -196.333 -110 -247s-168.666 -76 -309.999 -76h-73c-107.333 0 -186 11.833 -236 35.5s-89.667 64.834 -119 123.501
c-39.333 -56.667 -90.833 -97.334 -154.5 -122.001s-150.5 -37 -260.5 -37c-146 0 -246.333 24.167 -301 72.5s-82 135.166 -82 260.499c0 74 6.5 132 19.5 174s34.5 75.667 64.5 101c25.333 21.333 62.5 36.5 111.5 45.5s119.5 13.5 211.5 13.5
c95.333 0 168.333 -7.83301 219 -23.5s89 -41.834 115 -78.501v182c0 85.333 -17 140.833 -51 166.5s-118 38.5 -252 38.5c-98 0 -162.833 -10.167 -194.5 -30.5s-48.167 -58.5 -49.5 -114.5h-155zM849.998 270l0.000976562 109.001c0 50 -25.5 86.667 -76.5 110
s-132.167 35 -243.5 35c-102 0 -170.167 -12.833 -204.5 -38.5s-51.5 -74.834 -51.5 -147.501c0 -83.333 18.5 -139.333 55.5 -168s109.5 -43 217.5 -43c97.333 0 172.166 12.333 224.499 37s78.5 60 78.5 106z" />
    <glyph glyph-name="ccedilla" unicode="&#xe7;" 
d="M543 -14c-157.333 0 -267.337 30.667 -330.004 92s-94 169 -94 323v250c0 154.667 31.167 262.667 93.5 324s171.833 92 328.5 92h73c148.667 0 255.834 -28.5 321.501 -85.5s99.834 -150.5 102.501 -280.5l-161 -1c-3.33301 85.333 -22.666 144 -57.999 176
s-103.666 48 -204.999 48h-73c-107.333 0 -177.5 -18 -210.5 -54s-49.5 -120.667 -49.5 -254v-180c0 -134 16.667 -219 50 -255s103.333 -54 210 -54h73c102.667 0 172.167 17.5 208.5 52.5s54.5 98.833 54.5 191.5v18h161v-20c0 -137.333 -32.5 -235.5 -97.5 -294.5
s-173.167 -88.5 -324.5 -88.5h-73zM589.996 0v-115h64c63.333 0 104.333 -9 123 -27s28 -63.667 28 -137c0 -80.667 -8.83301 -130.834 -26.5 -150.501s-58.5 -29.5 -122.5 -29.5h-264v88h213c35.333 0 57 4.66699 65 14s12 37 12 83c0 40.667 -3.5 65.834 -10.5 75.501
s-29.833 14.5 -68.5 14.5h-78v184h65z" />
    <glyph glyph-name="egrave" unicode="&#xe8;" 
d="M281 629h596v41c0 98.667 -17.667 165.667 -53 201s-105.333 53 -210 53h-73c-104 0 -173.333 -17.667 -208 -53s-52 -102.333 -52 -201v-41zM543 -14c-157.333 0 -267.334 30.667 -330.001 92s-94 169 -94 323v250c0 154.667 31.167 262.667 93.5 324
s171.833 92 328.5 92h73c157.333 0 267.333 -30.667 330 -92s94 -169.333 94 -324v-159l-757 -1c-0.666992 -10.667 -1.16699 -22.5 -1.5 -35.5s-0.5 -31.167 -0.5 -54.5c0 -108.667 17.333 -181.5 52 -218.5s104.667 -55.5 210 -55.5h73c94 0 159.333 13.5 196 40.5
s58 74.167 64 141.5h162c-8 -114 -44.667 -196.333 -110 -247s-168.666 -76 -309.999 -76h-73zM618.999 1178l-269 348h152l209 -348h-92z" />
    <glyph glyph-name="eacute" unicode="&#xe9;" 
d="M281 629h596v41c0 98.667 -17.667 165.667 -53 201s-105.333 53 -210 53h-73c-104 0 -173.333 -17.667 -208 -53s-52 -102.333 -52 -201v-41zM543 -14c-157.333 0 -267.334 30.667 -330.001 92s-94 169 -94 323v250c0 154.667 31.167 262.667 93.5 324
s171.833 92 328.5 92h73c157.333 0 267.333 -30.667 330 -92s94 -169.333 94 -324v-159l-757 -1c-0.666992 -10.667 -1.16699 -22.5 -1.5 -35.5s-0.5 -31.167 -0.5 -54.5c0 -108.667 17.333 -181.5 52 -218.5s104.667 -55.5 210 -55.5h73c94 0 159.333 13.5 196 40.5
s58 74.167 64 141.5h162c-8 -114 -44.667 -196.333 -110 -247s-168.666 -76 -309.999 -76h-73zM552.999 1178h-92l209 348h152z" />
    <glyph glyph-name="ecircumflex" unicode="&#xea;" 
d="M281 629h596v41c0 98.667 -17.667 165.667 -53 201s-105.333 53 -210 53h-73c-104 0 -173.333 -17.667 -208 -53s-52 -102.333 -52 -201v-41zM543 -14c-157.333 0 -267.334 30.667 -330.001 92s-94 169 -94 323v250c0 154.667 31.167 262.667 93.5 324
s171.833 92 328.5 92h73c157.333 0 267.333 -30.667 330 -92s94 -169.333 94 -324v-159l-757 -1c-0.666992 -10.667 -1.16699 -22.5 -1.5 -35.5s-0.5 -31.167 -0.5 -54.5c0 -108.667 17.333 -181.5 52 -218.5s104.667 -55.5 210 -55.5h73c94 0 159.333 13.5 196 40.5
s58 74.167 64 141.5h162c-8 -114 -44.667 -196.333 -110 -247s-168.666 -76 -309.999 -76h-73zM309.999 1178l200 348h152l200 -348h-92l-184 262l-184 -262h-92z" />
    <glyph glyph-name="edieresis" unicode="&#xeb;" 
d="M281 629h596v41c0 98.667 -17.667 165.667 -53 201s-105.333 53 -210 53h-73c-104 0 -173.333 -17.667 -208 -53s-52 -102.333 -52 -201v-41zM543 -14c-157.333 0 -267.334 30.667 -330.001 92s-94 169 -94 323v250c0 154.667 31.167 262.667 93.5 324
s171.833 92 328.5 92h73c157.333 0 267.333 -30.667 330 -92s94 -169.333 94 -324v-159l-757 -1c-0.666992 -10.667 -1.16699 -22.5 -1.5 -35.5s-0.5 -31.167 -0.5 -54.5c0 -108.667 17.333 -181.5 52 -218.5s104.667 -55.5 210 -55.5h73c94 0 159.333 13.5 196 40.5
s58 74.167 64 141.5h162c-8 -114 -44.667 -196.333 -110 -247s-168.666 -76 -309.999 -76h-73zM675.999 1253v164h141v-164h-141zM354.999 1253v164h141v-164h-141z" />
    <glyph glyph-name="igrave" unicode="&#xec;" horiz-adv-x="479" 
d="M162 0v1053h155v-1053h-155zM273 1178l-269 348h152l209 -348h-92z" />
    <glyph glyph-name="iacute" unicode="&#xed;" horiz-adv-x="479" 
d="M162 0v1053h155v-1053h-155zM207 1178h-92l209 348h152z" />
    <glyph glyph-name="icircumflex" unicode="&#xee;" horiz-adv-x="479" 
d="M162 0v1053h155v-1053h-155zM-36 1178l200 348h152l200 -348h-92l-184 262l-184 -262h-92z" />
    <glyph glyph-name="idieresis" unicode="&#xef;" horiz-adv-x="479" 
d="M162 0v1053h155v-1053h-155zM330 1253v164h141v-164h-141zM9 1253v164h141v-164h-141z" />
    <glyph glyph-name="eth" unicode="&#xf0;" 
d="M614 924l-73 0.000976562c-107.333 0 -177.5 -18 -210.5 -54s-49.5 -120.667 -49.5 -254v-180c0 -134 16.667 -219 50 -255s103.333 -54 210 -54h73c108 0 178.833 18.167 212.5 54.5s50.5 121.166 50.5 254.499v180c0 90 -25 163.833 -75 221.5s-112.667 86.5 -188 86.5
zM688 1280l-332.001 -106.001l-43 114l289 94l-78 107h166l51 -66l205 68l45 -113l-164 -55c72.667 -105.333 126 -212.666 160 -321.999s51 -226 51 -350v-250c0 -154.667 -31.167 -262.5 -93.5 -323.5s-171.833 -91.5 -328.5 -91.5h-73
c-157.333 0 -267.333 30.667 -330 92s-94 169 -94 323v250c0 154.667 31.167 262.667 93.5 324s171.833 92 328.5 92h59c52.667 0 100 -11 142 -33s81.333 -56.667 118 -104c-17.333 58.667 -40.166 117.167 -68.499 175.5s-62.833 116.5 -103.5 174.5z" />
    <glyph glyph-name="ntilde" unicode="&#xf1;" horiz-adv-x="1180" 
d="M162 0l-0.000976562 1053h149v-144c25.333 54 66 93.833 122 119.5s130 38.5 222 38.5c138 0 234.667 -27.833 290 -83.5s83 -153.5 83 -293.5v-690h-156v657c0 110 -16.167 182.333 -48.5 217s-95.166 52 -188.499 52c-110 0 -190.5 -25.167 -241.5 -75.5
s-76.5 -129.833 -76.5 -238.5v-612h-155zM909.999 1440c-17.333 -60 -42.002 -105 -74.002 -135s-71 -45 -117 -45c-9.33301 0 -19.5 0.833008 -30.5 2.5s-22.833 4.16699 -35.5 7.5l-95 28c-12 4 -22 6.83301 -30 8.5s-16 2.5 -24 2.5c-18.667 0 -36 -6.33301 -52 -19
s-29.333 -30.334 -40 -53.001h-80c14.667 58 38.667 102.5 72 133.5s74.333 46.5 123 46.5c10.667 0 20.334 -0.666992 29.001 -2s16.667 -3.33301 24 -6l97 -31c8 -2.66699 17 -5 27 -7s19.333 -3 28 -3c22.667 0 41.834 5.83301 57.501 17.5s28.5 29.834 38.5 54.501h82z
" />
    <glyph glyph-name="ograve" unicode="&#xf2;" 
d="M877 436v179.999c0 132.667 -16.833 217.167 -50.5 253.5s-104.5 54.5 -212.5 54.5h-73c-107.333 0 -177.5 -18 -210.5 -54s-49.5 -120.667 -49.5 -254v-180c0 -134 16.667 -219 50 -255s103.333 -54 210 -54h73c107.333 0 178 18.333 212 55s51 121.334 51 254.001z
M543 -14.001c-157.333 0 -267.333 30.667 -330 92s-94 169 -94 323v250c0 154.667 31.167 262.667 93.5 324s171.833 92 328.5 92h73c157.333 0 267.333 -30.667 330 -92s94 -169.333 94 -324v-250c0 -154.667 -31.167 -262.5 -93.5 -323.5s-171.833 -91.5 -328.5 -91.5h-73
zM613 1178l-269 348h152l209 -348h-92z" />
    <glyph glyph-name="oacute" unicode="&#xf3;" 
d="M877 436v179.999c0 132.667 -16.833 217.167 -50.5 253.5s-104.5 54.5 -212.5 54.5h-73c-107.333 0 -177.5 -18 -210.5 -54s-49.5 -120.667 -49.5 -254v-180c0 -134 16.667 -219 50 -255s103.333 -54 210 -54h73c107.333 0 178 18.333 212 55s51 121.334 51 254.001z
M543 -14.001c-157.333 0 -267.333 30.667 -330 92s-94 169 -94 323v250c0 154.667 31.167 262.667 93.5 324s171.833 92 328.5 92h73c157.333 0 267.333 -30.667 330 -92s94 -169.333 94 -324v-250c0 -154.667 -31.167 -262.5 -93.5 -323.5s-171.833 -91.5 -328.5 -91.5h-73
zM547 1178h-92l209 348h152z" />
    <glyph glyph-name="ocircumflex" unicode="&#xf4;" 
d="M877 436v179.999c0 132.667 -16.833 217.167 -50.5 253.5s-104.5 54.5 -212.5 54.5h-73c-107.333 0 -177.5 -18 -210.5 -54s-49.5 -120.667 -49.5 -254v-180c0 -134 16.667 -219 50 -255s103.333 -54 210 -54h73c107.333 0 178 18.333 212 55s51 121.334 51 254.001z
M543 -14.001c-157.333 0 -267.333 30.667 -330 92s-94 169 -94 323v250c0 154.667 31.167 262.667 93.5 324s171.833 92 328.5 92h73c157.333 0 267.333 -30.667 330 -92s94 -169.333 94 -324v-250c0 -154.667 -31.167 -262.5 -93.5 -323.5s-171.833 -91.5 -328.5 -91.5h-73
zM304 1178l200 348h152l200 -348h-92l-184 262l-184 -262h-92z" />
    <glyph glyph-name="otilde" unicode="&#xf5;" 
d="M877 436v179.999c0 132.667 -16.833 217.167 -50.5 253.5s-104.5 54.5 -212.5 54.5h-73c-107.333 0 -177.5 -18 -210.5 -54s-49.5 -120.667 -49.5 -254v-180c0 -134 16.667 -219 50 -255s103.333 -54 210 -54h73c107.333 0 178 18.333 212 55s51 121.334 51 254.001z
M543 -14.001c-157.333 0 -267.333 30.667 -330 92s-94 169 -94 323v250c0 154.667 31.167 262.667 93.5 324s171.833 92 328.5 92h73c157.333 0 267.333 -30.667 330 -92s94 -169.333 94 -324v-250c0 -154.667 -31.167 -262.5 -93.5 -323.5s-171.833 -91.5 -328.5 -91.5h-73
zM869 1440c-17.333 -60 -42.002 -105 -74.002 -135s-71 -45 -117 -45c-9.33301 0 -19.5 0.833008 -30.5 2.5s-22.833 4.16699 -35.5 7.5l-95 28c-12 4 -22 6.83301 -30 8.5s-16 2.5 -24 2.5c-18.667 0 -36 -6.33301 -52 -19s-29.333 -30.334 -40 -53.001h-80
c14.667 58 38.667 102.5 72 133.5s74.333 46.5 123 46.5c10.667 0 20.334 -0.666992 29.001 -2s16.667 -3.33301 24 -6l97 -31c8 -2.66699 17 -5 27 -7s19.333 -3 28 -3c22.667 0 41.834 5.83301 57.501 17.5s28.5 29.834 38.5 54.501h82z" />
    <glyph glyph-name="odieresis" unicode="&#xf6;" 
d="M877 436v179.999c0 132.667 -16.833 217.167 -50.5 253.5s-104.5 54.5 -212.5 54.5h-73c-107.333 0 -177.5 -18 -210.5 -54s-49.5 -120.667 -49.5 -254v-180c0 -134 16.667 -219 50 -255s103.333 -54 210 -54h73c107.333 0 178 18.333 212 55s51 121.334 51 254.001z
M543 -14.001c-157.333 0 -267.333 30.667 -330 92s-94 169 -94 323v250c0 154.667 31.167 262.667 93.5 324s171.833 92 328.5 92h73c157.333 0 267.333 -30.667 330 -92s94 -169.333 94 -324v-250c0 -154.667 -31.167 -262.5 -93.5 -323.5s-171.833 -91.5 -328.5 -91.5h-73
zM670 1253v164h141v-164h-141zM349 1253v164h141v-164h-141z" />
    <glyph glyph-name="divide" unicode="&#xf7;" horiz-adv-x="1706" 
d="M854 365c30 0 55.333 -10.333 76 -31s31 -46 31 -76c0 -29.333 -10.333 -54.333 -31 -75s-46 -31 -76 -31s-55.167 10.333 -75.5 31s-30.5 45.667 -30.5 75s10.333 54.5 31 75.5s45.667 31.5 75 31.5zM1452 659v-98h-1198v98h1198zM854 1071
c29.333 0 54.5 -10.667 75.5 -32s31.5 -46.666 31.5 -75.999c0 -30 -10.333 -55.333 -31 -76s-46 -31 -76 -31s-55.167 10.167 -75.5 30.5s-30.5 45.833 -30.5 76.5c0 29.333 10.5 54.666 31.5 75.999s45.833 32 74.5 32z" />
    <glyph glyph-name="oslash" unicode="&#xf8;" 
d="M778 911c-20 4.66699 -42.834 8.00098 -68.501 10.001s-57.5 3 -95.5 3h-73c-107.333 0 -177.5 -18 -210.5 -54s-49.5 -120.667 -49.5 -254v-180c0 -56.667 0.333008 -97.834 1 -123.501s2.33398 -49.167 5.00098 -70.5zM542.999 -13.999
c-56.667 0 -103.833 2.66797 -141.5 8.00098s-71.167 14 -100.5 26l-106 -141l-119 90l106 146c-22 30 -38 67 -48 111s-15 102.333 -15 175v250c0 154.667 31.167 262.667 93.5 324s171.833 92 328.5 92h73c59.333 0 109 -2.83301 149 -8.5s71.667 -14.5 95 -26.5l105 142
l116 -89l-104 -143c22 -34 38 -73.333 48 -118s15 -102.334 15 -173.001v-250c0 -154.667 -31.167 -262.5 -93.5 -323.5s-171.833 -91.5 -328.5 -91.5h-73zM877 436.002l-0.00195312 179.998c0 44.667 -0.666992 83.334 -2 116.001s-3.66602 61 -6.99902 85l-495 -678
c28.667 -4 56.834 -7 84.501 -9s55.5 -3 83.5 -3h73c107.333 0 178 18.333 212 55s51 121.334 51 254.001z" />
    <glyph glyph-name="ugrave" unicode="&#xf9;" horiz-adv-x="1180" 
d="M1020 1053l0.000976562 -1053h-150v143c-24.667 -53.333 -65.334 -92.833 -122.001 -118.5s-131.334 -38.5 -224.001 -38.5c-137.333 0 -233.666 27.833 -288.999 83.5s-83 153.167 -83 292.5v691h155v-658c0 -109.333 16.333 -181.333 49 -216s96.334 -52 191.001 -52
c109.333 0 189.166 25 239.499 75s75.5 129.333 75.5 238v613h158zM623.001 1178l-269 348h152l209 -348h-92z" />
    <glyph glyph-name="uacute" unicode="&#xfa;" horiz-adv-x="1180" 
d="M1020 1053l0.000976562 -1053h-150v143c-24.667 -53.333 -65.334 -92.833 -122.001 -118.5s-131.334 -38.5 -224.001 -38.5c-137.333 0 -233.666 27.833 -288.999 83.5s-83 153.167 -83 292.5v691h155v-658c0 -109.333 16.333 -181.333 49 -216s96.334 -52 191.001 -52
c109.333 0 189.166 25 239.499 75s75.5 129.333 75.5 238v613h158zM557.001 1178h-92l209 348h152z" />
    <glyph glyph-name="ucircumflex" unicode="&#xfb;" horiz-adv-x="1180" 
d="M1020 1053l0.000976562 -1053h-150v143c-24.667 -53.333 -65.334 -92.833 -122.001 -118.5s-131.334 -38.5 -224.001 -38.5c-137.333 0 -233.666 27.833 -288.999 83.5s-83 153.167 -83 292.5v691h155v-658c0 -109.333 16.333 -181.333 49 -216s96.334 -52 191.001 -52
c109.333 0 189.166 25 239.499 75s75.5 129.333 75.5 238v613h158zM314.001 1178l200 348h152l200 -348h-92l-184 262l-184 -262h-92z" />
    <glyph glyph-name="udieresis" unicode="&#xfc;" horiz-adv-x="1180" 
d="M1020 1053l0.000976562 -1053h-150v143c-24.667 -53.333 -65.334 -92.833 -122.001 -118.5s-131.334 -38.5 -224.001 -38.5c-137.333 0 -233.666 27.833 -288.999 83.5s-83 153.167 -83 292.5v691h155v-658c0 -109.333 16.333 -181.333 49 -216s96.334 -52 191.001 -52
c109.333 0 189.166 25 239.499 75s75.5 129.333 75.5 238v613h158zM680.001 1253v164h141v-164h-141zM359.001 1253v164h141v-164h-141z" />
    <glyph glyph-name="yacute" unicode="&#xfd;" horiz-adv-x="999" 
d="M47 1053l156.001 -0.000976562l313 -906l311 906h154l-397 -1145c-43.333 -124 -87.5 -208 -132.5 -252s-105.5 -66 -181.5 -66c-11.333 0 -23.833 0.5 -37.5 1.5s-28.5 2.83301 -44.5 5.5l1 137c4.66699 -0.666992 10.5 -1.16699 17.5 -1.5s16.833 -0.5 29.5 -0.5
c48 0 85.167 10.833 111.5 32.5s51.166 63.834 74.499 126.501l39 109h-47zM467.001 1178h-92l209 348h152z" />
    <glyph glyph-name="thorn" unicode="&#xfe;" horiz-adv-x="1176" 
d="M319 612l-0.000976562 -172.001c0 -109.333 25.5 -188.833 76.5 -238.5s132.833 -74.5 245.5 -74.5c102 0 169.833 18.333 203.5 55s50.5 121.334 50.5 254.001v180c0 134 -17.167 219.167 -51.5 255.5s-107.166 54.5 -218.499 54.5c-104 0 -181 -25.5 -231 -76.5
s-75 -130.167 -75 -237.5zM312.999 1489v-600c24.667 60.667 64.167 105.5 118.5 134.5s126.166 43.5 215.499 43.5c150 0 255.833 -31 317.5 -93s92.5 -169.667 92.5 -323v-250c0 -152.667 -30.833 -260 -92.5 -322s-167.5 -93 -317.5 -93
c-87.333 0 -156.666 12.833 -207.999 38.5s-91.333 67.5 -120 125.5v-553h-155v1892h149z" />
    <glyph glyph-name="ydieresis" unicode="&#xff;" horiz-adv-x="999" 
d="M47 1053l156.001 -0.000976562l313 -906l311 906h154l-397 -1145c-43.333 -124 -87.5 -208 -132.5 -252s-105.5 -66 -181.5 -66c-11.333 0 -23.833 0.5 -37.5 1.5s-28.5 2.83301 -44.5 5.5l1 137c4.66699 -0.666992 10.5 -1.16699 17.5 -1.5s16.833 -0.5 29.5 -0.5
c48 0 85.167 10.833 111.5 32.5s51.166 63.834 74.499 126.501l39 109h-47zM590.001 1253v164h141v-164h-141zM269.001 1253v164h141v-164h-141z" />
    <glyph glyph-name="Cacute" unicode="&#x106;" horiz-adv-x="1399" 
d="M133 997c0 190.667 36.501 323.332 109.501 397.999s201.833 112 386.5 112h174c183.333 0 312 -32.167 386 -96.5s111 -173.5 111 -327.5v-65h-170v41c0 112.667 -23 189.667 -69 231s-136 62 -270 62h-115c-90 0 -155.5 -5.5 -196.5 -16.5s-75.167 -29.5 -102.5 -55.5
c-27.333 -25.333 -46.5 -58.5 -57.5 -99.5s-16.5 -115.833 -16.5 -224.5v-424c0 -108 5.5 -182.5 16.5 -223.5s30.167 -74.167 57.5 -99.5c27.333 -26 60.5 -44.5 99.5 -55.5s105.5 -16.5 199.5 -16.5h115c137.333 0 228.666 21.667 273.999 65s68 126.333 68 249
c0 18.667 -0.166992 33 -0.5 43s-0.833008 19.333 -1.5 28h169v-98c0 -165.333 -35.833 -280.333 -107.5 -345s-201.5 -97 -389.5 -97h-174c-184.667 0 -313.5 37.333 -386.5 112s-109.5 207.334 -109.5 398.001v505zM694.001 1618h-92l209 348h152z" />
    <glyph glyph-name="cacute" unicode="&#x107;" 
d="M543 -14c-157.333 0 -267.337 30.667 -330.004 92s-94 169 -94 323v250c0 154.667 31.167 262.667 93.5 324s171.833 92 328.5 92h73c148.667 0 255.834 -28.5 321.501 -85.5s99.834 -150.5 102.501 -280.5l-161 -1c-3.33301 85.333 -22.666 144 -57.999 176
s-103.666 48 -204.999 48h-73c-107.333 0 -177.5 -18 -210.5 -54s-49.5 -120.667 -49.5 -254v-180c0 -134 16.667 -219 50 -255s103.333 -54 210 -54h73c102.667 0 172.167 17.5 208.5 52.5s54.5 98.833 54.5 191.5v18h161v-20c0 -137.333 -32.5 -235.5 -97.5 -294.5
s-173.167 -88.5 -324.5 -88.5h-73zM546.996 1178h-92l209 348h152z" />
    <glyph glyph-name="Ccaron" unicode="&#x10c;" horiz-adv-x="1399" 
d="M133 997c0 190.667 36.501 323.332 109.501 397.999s201.833 112 386.5 112h174c183.333 0 312 -32.167 386 -96.5s111 -173.5 111 -327.5v-65h-170v41c0 112.667 -23 189.667 -69 231s-136 62 -270 62h-115c-90 0 -155.5 -5.5 -196.5 -16.5s-75.167 -29.5 -102.5 -55.5
c-27.333 -25.333 -46.5 -58.5 -57.5 -99.5s-16.5 -115.833 -16.5 -224.5v-424c0 -108 5.5 -182.5 16.5 -223.5s30.167 -74.167 57.5 -99.5c27.333 -26 60.5 -44.5 99.5 -55.5s105.5 -16.5 199.5 -16.5h115c137.333 0 228.666 21.667 273.999 65s68 126.333 68 249
c0 18.667 -0.166992 33 -0.5 43s-0.833008 19.333 -1.5 28h169v-98c0 -165.333 -35.833 -280.333 -107.5 -345s-201.5 -97 -389.5 -97h-174c-184.667 0 -313.5 37.333 -386.5 112s-109.5 207.334 -109.5 398.001v505zM451.001 1966h92l184 -262l184 262h92l-200 -348h-152z
" />
    <glyph glyph-name="ccaron" unicode="&#x10d;" 
d="M543 -14c-157.333 0 -267.337 30.667 -330.004 92s-94 169 -94 323v250c0 154.667 31.167 262.667 93.5 324s171.833 92 328.5 92h73c148.667 0 255.834 -28.5 321.501 -85.5s99.834 -150.5 102.501 -280.5l-161 -1c-3.33301 85.333 -22.666 144 -57.999 176
s-103.666 48 -204.999 48h-73c-107.333 0 -177.5 -18 -210.5 -54s-49.5 -120.667 -49.5 -254v-180c0 -134 16.667 -219 50 -255s103.333 -54 210 -54h73c102.667 0 172.167 17.5 208.5 52.5s54.5 98.833 54.5 191.5v18h161v-20c0 -137.333 -32.5 -235.5 -97.5 -294.5
s-173.167 -88.5 -324.5 -88.5h-73zM303.996 1526h92l184 -262l184 262h92l-200 -348h-152z" />
    <glyph glyph-name="dcroat" unicode="&#x111;" horiz-adv-x="1176" 
d="M862 162c-24.667 -60.667 -63.667 -105.167 -117 -133.5s-125 -42.5 -215 -42.5c-150.667 0 -256.834 30.833 -318.501 92.5s-92.5 169.167 -92.5 322.5v250c0 154 30.833 261.833 92.5 323.5s167.834 92.5 318.501 92.5c88 0 157 -12.667 207 -38
s89.667 -67.333 119 -126v367h-381v133h381v86h156v-86h164v-133h-164v-1270h-150v162zM856 440v172c0 110 -25.5 189.833 -76.5 239.5s-132.5 74.5 -244.5 74.5c-101.333 0 -169 -18 -203 -54s-51 -121.333 -51 -256v-180c0 -134 17 -219 51 -255s101.667 -54 203 -54
c112 0 193.5 24.833 244.5 74.5s76.5 129.167 76.5 238.5z" />
    <glyph glyph-name="Gbreve" unicode="&#x11e;" horiz-adv-x="1503" 
d="M123 997c0 190 39.334 322.5 118.001 397.5s218 112.5 418 112.5h189c183.333 0 318.5 -31.167 405.5 -93.5s130.5 -159.5 130.5 -291.5v-63h-170v18c0 102.667 -26 174.167 -78 214.5s-151.333 60.5 -298 60.5h-131c-102 0 -175.333 -5.66699 -220 -17
s-82.667 -30.333 -114 -57c-28.667 -24.667 -48.834 -57.667 -60.501 -99s-17.5 -115.666 -17.5 -222.999v-424c0 -106.667 5.83301 -180.667 17.5 -222s31.834 -74.333 60.501 -99c31.333 -26.667 68.666 -45.667 111.999 -57s117.333 -17 222 -17h131
c94.667 0 161.667 5 201 15s73.333 27 102 51c26.667 22.667 45.5 53.667 56.5 93s16.5 106.666 16.5 201.999v92h-413v151h583v-249c0 -190.667 -39.333 -323.334 -118 -398.001s-218 -112 -418 -112h-189c-200 0 -339.333 37.333 -418 112s-118 207.334 -118 398.001v505z
M478.001 1923h79.002c4 -50.667 21.667 -87.667 53 -111s78.666 -35 141.999 -35s110.166 11.667 140.499 35s47.833 60.333 52.5 111h81c-6 -91.333 -30.833 -157.833 -74.5 -199.5s-110.167 -62.5 -199.5 -62.5c-88 0 -154.167 21.167 -198.5 63.5
s-69.5 108.5 -75.5 198.5z" />
    <glyph glyph-name="gbreve" unicode="&#x11f;" horiz-adv-x="1204" 
d="M887 440v172c0 110 -25.5 189.833 -76.5 239.5s-132.833 74.5 -245.5 74.5c-102 0 -170.167 -18.5 -204.5 -55.5s-51.5 -121.833 -51.5 -254.5v-180c0 -132 17.167 -216.5 51.5 -253.5s102.5 -55.5 204.5 -55.5c112.667 0 194.5 24.833 245.5 74.5
s76.5 129.167 76.5 238.5zM1042 1053v-1041c0 -154.667 -30.333 -262.5 -91 -323.5s-167.334 -91.5 -320.001 -91.5h-72c-137.333 0 -237.666 25 -300.999 75s-99.333 132.667 -108 248h159c6.66699 -67.333 27.5 -114.166 62.5 -140.499s98.167 -39.5 189.5 -39.5h70
c92 0 157.667 15 197 45s59 79 59 147v218c-29.333 -58 -69.5 -99.833 -120.5 -125.5s-120.167 -38.5 -207.5 -38.5c-150 0 -255.667 31 -317 93s-92 169.333 -92 322v250c0 153.333 30.667 261 92 323s167 93 317 93c90 0 161.833 -14.333 215.5 -43
s93.167 -73.667 118.5 -135v164h149zM328 1483h79.002c4 -50.667 21.667 -87.667 53 -111s78.666 -35 141.999 -35s110.166 11.667 140.499 35s47.833 60.333 52.5 111h81c-6 -91.333 -30.833 -157.833 -74.5 -199.5s-110.167 -62.5 -199.5 -62.5
c-88 0 -154.167 21.167 -198.5 63.5s-69.5 108.5 -75.5 198.5z" />
    <glyph glyph-name="Idotaccent" unicode="&#x130;" horiz-adv-x="526" 
d="M180 0v1489h166v-1489h-166zM188 1689v174h152v-174h-152z" />
    <glyph glyph-name="dotlessi" unicode="&#x131;" horiz-adv-x="479" 
d="M162 0v1053h155v-1053h-155z" />
    <glyph glyph-name="Lslash" unicode="&#x141;" horiz-adv-x="1223" 
d="M180 0v643l-160 -111v170l160 113v674h162v-586l356 248v-168l-356 -250v-577h844v-156h-1006z" />
    <glyph glyph-name="lslash" unicode="&#x142;" horiz-adv-x="541" 
d="M217 0v778l-180 -127v160l180 127v551h156v-465l180 127v-160l-180 -127v-864h-156z" />
    <glyph glyph-name="OE" unicode="&#x152;" horiz-adv-x="2351" 
d="M303 991v-493c0 -98 5.33301 -166.167 16 -204.5s29.334 -68.5 56.001 -90.5c28 -24 62 -41 102 -51s107.667 -15 203 -15h166c95.333 0 162.833 5 202.5 15s73.834 27 102.501 51c26.667 22 45.334 52.167 56.001 90.5s16 106.5 16 204.5v493
c0 98 -5.33301 166.167 -16 204.5s-29.334 68.5 -56.001 90.5c-28.667 24 -62.834 41 -102.501 51s-107.167 15 -202.5 15h-166c-95.333 0 -163 -5 -203 -15s-74 -27 -102 -51c-26.667 -22 -45.334 -52.167 -56.001 -90.5s-16 -106.5 -16 -204.5zM1223 0v134.997
c-35.333 -55.333 -80 -94.666 -134 -117.999s-131 -35 -231 -35h-188c-200.667 0 -340.334 37.333 -419.001 112s-118 207.334 -118 398.001v505c0 190 39.333 322.5 118 397.5s218.334 112.5 419.001 112.5h188c100 0 177.5 -11.667 232.5 -35
s99.167 -62.666 132.5 -117.999v135h1044v-158h-881v-487h857v-152h-857v-536h881v-156h-1044z" />
    <glyph glyph-name="oe" unicode="&#x153;" horiz-adv-x="1907" 
d="M1028 629h598v41c0 98.667 -17.667 165.667 -53 201s-105 53 -209 53h-74c-104 0 -173.667 -17.667 -209 -53s-53 -102.333 -53 -201v-41zM543 -14c-157.333 0 -267.335 30.6631 -330.002 91.9961s-94 169 -94 323v250c0 154.667 31.167 262.667 93.5 324
s171.833 92 328.5 92h73c94 0 165.833 -9.66699 215.5 -29s91.167 -52 124.5 -98c30 46 69.667 78.667 119 98s121.666 29 216.999 29h74c157.333 0 267.333 -30.667 330 -92s94 -169.333 94 -324v-159l-760 -1c-0.666992 -11.333 -1.16699 -23.166 -1.5 -35.499
s-0.5 -29.833 -0.5 -52.5c0 -109.333 17.5 -182.666 52.5 -219.999s105.5 -56 211.5 -56h74c93.333 0 158.333 13.5 195 40.5s58.334 74.167 65.001 141.5h160c-8 -114 -44.667 -196.333 -110 -247s-168.666 -76 -309.999 -76h-74c-96.667 0 -169.667 9.83301 -219 29.5
s-89 52.834 -119 99.501c-32 -47.333 -72.167 -80.666 -120.5 -99.999s-120.166 -29 -215.499 -29h-73zM876.998 435.996v179.999c0 132.667 -16.833 217.167 -50.5 253.5s-104.5 54.5 -212.5 54.5h-73c-107.333 0 -177.5 -18 -210.5 -54s-49.5 -120.667 -49.5 -254v-180
c0 -134 16.667 -219 50 -255s103.333 -54 210 -54h73c107.333 0 178 18.333 212 55s51 121.334 51 254.001z" />
    <glyph glyph-name="Scedilla" unicode="&#x15e;" horiz-adv-x="1460" 
d="M139 485l165.996 -0.00292969v-28c0 -88.667 6.66699 -154 20 -196s35.333 -71.667 66 -89c24 -13.333 61 -22.833 111 -28.5s153 -8.5 309 -8.5c84.667 0 150.334 5.5 197.001 16.5s81.334 28.833 104.001 53.5c12.667 13.333 22 36 28 68s9 75.333 9 130
c0 110.667 -11.167 180.167 -33.5 208.5s-66.5 45.166 -132.5 50.499l-459 36c-137.333 10.667 -232.333 45 -285 103s-79 155.667 -79 293c0 86.667 8.66699 156.334 26 209.001s45.333 96.334 84 131.001c30 26.667 72 45.5 126 56.5s149.333 16.5 286 16.5h53
c152.667 0 260.167 -7.33301 322.5 -22s114.5 -40 156.5 -76c28.667 -24 49.834 -58.167 63.501 -102.5s20.5 -99.5 20.5 -165.5c0 -19.333 -0.166992 -34.166 -0.5 -44.499s-0.833008 -19.5 -1.5 -27.5h-166v37c0 54.667 -3.16699 96.5 -9.5 125.5s-16.5 50.5 -30.5 64.5
c-20.667 20.667 -57.5 35.167 -110.5 43.5s-153.5 12.5 -301.5 12.5c-153.333 0 -249.666 -17.333 -288.999 -52s-59 -104 -59 -208c0 -85.333 12.833 -144.166 38.5 -176.499s75.167 -51.5 148.5 -57.5l468 -39c122.667 -10.667 208.667 -44.5 258 -101.5
s74 -152.167 74 -285.5c0 -97.333 -6.33301 -170.5 -19 -219.5s-33.667 -89.833 -63 -122.5c-36 -40.667 -84.5 -69.167 -145.5 -85.5s-172.167 -24.5 -333.5 -24.5h-74c-137.333 0 -234.5 7 -291.5 21s-104.5 38.333 -142.5 73c-37.333 32 -64.833 75.333 -82.5 130
s-26.5 124 -26.5 208v73zM740.996 -0.00292969v-115h64c63.333 0 104.333 -9 123 -27s28 -63.667 28 -137c0 -80.667 -8.83301 -130.834 -26.5 -150.501s-58.5 -29.5 -122.5 -29.5h-264v88h213c35.333 0 57 4.66699 65 14s12 37 12 83c0 40.667 -3.5 65.834 -10.5 75.501
s-29.833 14.5 -68.5 14.5h-78v184h65z" />
    <glyph glyph-name="scedilla" unicode="&#x15f;" horiz-adv-x="1194" 
d="M123 313l158 0.000976562v-24c0 -64.667 20 -109.167 60 -133.5s120.333 -36.5 241 -36.5c135.333 0 218.666 12.333 249.999 37s47 72.334 47 143.001c0 68.667 -12.833 114.5 -38.5 137.5s-89.834 37.167 -192.501 42.5c-38 2 -89.333 4 -154 6
c-141.333 4 -225.333 13.667 -252 29c-40 22 -68.5 52 -85.5 90s-25.5 92.667 -25.5 164c0 116.667 29.667 195.667 89 237s190 62 392 62c156.667 0 262.834 -19.667 318.501 -59s83.5 -108.333 83.5 -207h-156v10c0 46.667 -20.167 78.834 -60.5 96.501
s-120.5 26.5 -240.5 26.5c-116 0 -190 -10.667 -222 -32s-48 -66 -48 -134c0 -41.333 3 -70.333 9 -87s16.667 -29.334 32 -38.001c31.333 -16.667 100.666 -26.334 207.999 -29.001c27.333 -0.666992 48.333 -1.33398 63 -2.00098c88 -3.33301 157 -7.83301 207 -13.5
s85.667 -13.5 107 -23.5c46.667 -21.333 79.834 -52 99.501 -92s29.5 -98 29.5 -174c0 -77.333 -9.66699 -136 -29 -176s-54 -75.333 -104 -106c-22.667 -14.667 -59.667 -25.167 -111 -31.5s-122.666 -9.5 -213.999 -9.5c-186.667 0 -310.167 21.5 -370.5 64.5
s-90.5 121.167 -90.5 234.5v28zM608 0.000976562v-115h64c63.333 0 104.333 -9 123 -27s28 -63.667 28 -137c0 -80.667 -8.83301 -130.834 -26.5 -150.501s-58.5 -29.5 -122.5 -29.5h-264v88h213c35.333 0 57 4.66699 65 14s12 37 12 83c0 40.667 -3.5 65.834 -10.5 75.501
s-29.833 14.5 -68.5 14.5h-78v184h65z" />
    <glyph glyph-name="Scaron" unicode="&#x160;" horiz-adv-x="1460" 
d="M139 485l165.996 -0.00292969v-28c0 -88.667 6.66699 -154 20 -196s35.333 -71.667 66 -89c24 -13.333 61 -22.833 111 -28.5s153 -8.5 309 -8.5c84.667 0 150.334 5.5 197.001 16.5s81.334 28.833 104.001 53.5c12.667 13.333 22 36 28 68s9 75.333 9 130
c0 110.667 -11.167 180.167 -33.5 208.5s-66.5 45.166 -132.5 50.499l-459 36c-137.333 10.667 -232.333 45 -285 103s-79 155.667 -79 293c0 86.667 8.66699 156.334 26 209.001s45.333 96.334 84 131.001c30 26.667 72 45.5 126 56.5s149.333 16.5 286 16.5h53
c152.667 0 260.167 -7.33301 322.5 -22s114.5 -40 156.5 -76c28.667 -24 49.834 -58.167 63.501 -102.5s20.5 -99.5 20.5 -165.5c0 -19.333 -0.166992 -34.166 -0.5 -44.499s-0.833008 -19.5 -1.5 -27.5h-166v37c0 54.667 -3.16699 96.5 -9.5 125.5s-16.5 50.5 -30.5 64.5
c-20.667 20.667 -57.5 35.167 -110.5 43.5s-153.5 12.5 -301.5 12.5c-153.333 0 -249.666 -17.333 -288.999 -52s-59 -104 -59 -208c0 -85.333 12.833 -144.166 38.5 -176.499s75.167 -51.5 148.5 -57.5l468 -39c122.667 -10.667 208.667 -44.5 258 -101.5
s74 -152.167 74 -285.5c0 -97.333 -6.33301 -170.5 -19 -219.5s-33.667 -89.833 -63 -122.5c-36 -40.667 -84.5 -69.167 -145.5 -85.5s-172.167 -24.5 -333.5 -24.5h-74c-137.333 0 -234.5 7 -291.5 21s-104.5 38.333 -142.5 73c-37.333 32 -64.833 75.333 -82.5 130
s-26.5 124 -26.5 208v73zM454.996 1966h92l184 -262l184 262h92l-200 -348h-152z" />
    <glyph glyph-name="scaron" unicode="&#x161;" horiz-adv-x="1194" 
d="M123 313l158 0.000976562v-24c0 -64.667 20 -109.167 60 -133.5s120.333 -36.5 241 -36.5c135.333 0 218.666 12.333 249.999 37s47 72.334 47 143.001c0 68.667 -12.833 114.5 -38.5 137.5s-89.834 37.167 -192.501 42.5c-38 2 -89.333 4 -154 6
c-141.333 4 -225.333 13.667 -252 29c-40 22 -68.5 52 -85.5 90s-25.5 92.667 -25.5 164c0 116.667 29.667 195.667 89 237s190 62 392 62c156.667 0 262.834 -19.667 318.501 -59s83.5 -108.333 83.5 -207h-156v10c0 46.667 -20.167 78.834 -60.5 96.501
s-120.5 26.5 -240.5 26.5c-116 0 -190 -10.667 -222 -32s-48 -66 -48 -134c0 -41.333 3 -70.333 9 -87s16.667 -29.334 32 -38.001c31.333 -16.667 100.666 -26.334 207.999 -29.001c27.333 -0.666992 48.333 -1.33398 63 -2.00098c88 -3.33301 157 -7.83301 207 -13.5
s85.667 -13.5 107 -23.5c46.667 -21.333 79.834 -52 99.501 -92s29.5 -98 29.5 -174c0 -77.333 -9.66699 -136 -29 -176s-54 -75.333 -104 -106c-22.667 -14.667 -59.667 -25.167 -111 -31.5s-122.666 -9.5 -213.999 -9.5c-186.667 0 -310.167 21.5 -370.5 64.5
s-90.5 121.167 -90.5 234.5v28zM322 1526h92l184 -262l184 262h92l-200 -348h-152z" />
    <glyph glyph-name="Ydieresis" unicode="&#x178;" horiz-adv-x="1219" 
d="M690 0h-162v659l-616 830h194l502 -694l502 694h195l-615 -827v-662zM700 1693v164h141v-164h-141zM379 1693v164h141v-164h-141z" />
    <glyph glyph-name="Zcaron" unicode="&#x17d;" horiz-adv-x="1331" 
d="M96 0v178l957 1163h-914v148h1088v-174l-951 -1159h951v-156h-1131zM390 1966h92l184 -262l184 262h92l-200 -348h-152z" />
    <glyph glyph-name="zcaron" unicode="&#x17e;" horiz-adv-x="1057" 
d="M119 0v170l651 739h-620v144h811v-146l-674 -766h674v-141h-842zM252 1526h92l184 -262l184 262h92l-200 -348h-152z" />
    <glyph glyph-name="florin" unicode="&#x192;" horiz-adv-x="1384" 
d="M-47 -230c36.667 -7.33301 68.3311 -12.833 94.998 -16.5s48.334 -5.5 65.001 -5.5c81.333 0 143.166 25.833 185.499 77.5s76.5 148.167 102.5 289.5l127 676h-295v133h316l35 188c23.333 128.667 68.833 226.667 136.5 294s154.5 101 260.5 101
c29.333 0 59.5 -1.83301 90.5 -5.5s62.833 -9.16699 95.5 -16.5v-150c-38 8 -69.833 13.833 -95.5 17.5s-47.5 5.5 -65.5 5.5c-66.667 0 -121 -22.167 -163 -66.5s-71 -109.5 -87 -195.5l-33 -172h313v-133h-331l-136 -715c-33.333 -175.333 -83.166 -299 -149.499 -371
s-161.166 -108 -284.499 -108c-26 0 -53.833 1.83301 -83.5 5.5s-62.5 9.16699 -98.5 16.5v151z" />
    <glyph glyph-name="circumflex" unicode="&#x2c6;" horiz-adv-x="1024" 
d="M236 1178l200 348h152l200 -348h-92l-184 262l-184 -262h-92z" />
    <glyph glyph-name="caron" unicode="&#x2c7;" horiz-adv-x="1024" 
d="M236 1526h92l184 -262l184 262h92l-200 -348h-152z" />
    <glyph glyph-name="breve" unicode="&#x2d8;" horiz-adv-x="1024" 
d="M238 1483h79.002c4 -50.667 21.667 -87.667 53 -111s78.666 -35 141.999 -35s110.166 11.667 140.499 35s47.833 60.333 52.5 111h81c-6 -91.333 -30.833 -157.833 -74.5 -199.5s-110.167 -62.5 -199.5 -62.5c-88 0 -154.167 21.167 -198.5 63.5s-69.5 108.5 -75.5 198.5
z" />
    <glyph glyph-name="dotaccent" unicode="&#x2d9;" horiz-adv-x="1024" 
d="M436 1249v174h152v-174h-152z" />
    <glyph glyph-name="ring" unicode="&#x2da;" horiz-adv-x="1024" 
d="M362 1364c0 -42 14.501 -77.499 43.501 -106.499s64.5 -43.5 106.5 -43.5c41.333 0 76.666 14.667 105.999 44s44 64.666 44 105.999c0 42 -14.5 77.333 -43.5 106s-64.5 43 -106.5 43s-77.5 -14.333 -106.5 -43s-43.5 -64 -43.5 -106zM272.001 1364
c0 68 23.167 125.333 69.5 172s103.166 70 170.499 70s124.5 -23.5 171.5 -70.5s70.5 -104.167 70.5 -171.5s-23.333 -124.166 -70 -170.499s-104 -69.5 -172 -69.5c-67.333 0 -124.166 23.167 -170.499 69.5s-69.5 103.166 -69.5 170.499z" />
    <glyph glyph-name="ogonek" unicode="&#x2db;" horiz-adv-x="1024" 
d="M588 0l-106.999 -179.999c-10.667 -19.333 -18 -34.5 -22 -45.5s-6 -21.167 -6 -30.5c0 -14 3 -24 9 -30s16 -9 30 -9h104v-108h-160c-42 0 -70.833 6.33301 -86.5 19s-23.5 35.667 -23.5 69c0 17.333 3.66699 35.666 11 54.999s18.666 39 33.999 59l149 201h68z" />
    <glyph glyph-name="tilde" unicode="&#x2dc;" horiz-adv-x="1024" 
d="M801 1440c-17.333 -60 -42.002 -105 -74.002 -135s-71 -45 -117 -45c-9.33301 0 -19.5 0.833008 -30.5 2.5s-22.833 4.16699 -35.5 7.5l-95 28c-12 4 -22 6.83301 -30 8.5s-16 2.5 -24 2.5c-18.667 0 -36 -6.33301 -52 -19s-29.333 -30.334 -40 -53.001h-80
c14.667 58 38.667 102.5 72 133.5s74.333 46.5 123 46.5c10.667 0 20.334 -0.666992 29.001 -2s16.667 -3.33301 24 -6l97 -31c8 -2.66699 17 -5 27 -7s19.333 -3 28 -3c22.667 0 41.834 5.83301 57.501 17.5s28.5 29.834 38.5 54.501h82z" />
    <glyph glyph-name="hungarumlaut" unicode="&#x2dd;" horiz-adv-x="1024" 
d="M571 1178l168 348h133l-227 -348h-74zM336 1178l149 348h133l-208 -348h-74z" />
    <glyph glyph-name="Omega" unicode="&#x3a9;" horiz-adv-x="1579" 
d="M1462 139l0.000976562 -138.999h-581v127c138 82.667 242.333 180.5 313 293.5s106 237.833 106 374.5c0 173.333 -47.167 313.5 -141.5 420.5s-216.833 160.5 -367.5 160.5c-152 0 -275.333 -53.333 -370 -160s-142 -246.334 -142 -419.001
c0 -138 35.5 -263.833 106.5 -377.5s175.167 -211.167 312.5 -292.5v-127h-581v139h344c-115.333 88.667 -200.833 185.834 -256.5 291.501s-83.5 223.5 -83.5 353.5c0 213.333 62.833 388.166 188.5 524.499s286.167 204.5 481.5 204.5c194 0 354 -67.833 480 -203.5
s189 -310.167 189 -523.5c0 -130.667 -27.833 -248.667 -83.5 -354s-141.834 -203 -258.501 -293h344z" />
    <glyph glyph-name="pi" unicode="&#x3c0;" horiz-adv-x="1171" 
d="M1120 944h-182.003l-115 -541c-10 -46 -17.5 -85 -22.5 -117s-7.5 -55.667 -7.5 -71c0 -38.667 8.33301 -66 25 -82s45 -24 85 -24c19.333 0 36.333 0.833008 51 2.5s28.334 3.83398 41.001 6.50098l-26 -118c-18.667 -5.33301 -36.5 -9.33301 -53.5 -12
s-32.833 -4 -47.5 -4c-67.333 0 -119.666 17.667 -156.999 53s-56 85 -56 149c0 30.667 3.66699 70 11 118s22.333 125.667 45 233l86 407h-365l-199 -944h-139l199 944h-39c-36.667 0 -65.167 -10.5 -85.5 -31.5s-34.166 -54.167 -41.499 -99.5h-131
c16.667 95.333 46 161.166 88 197.499s113.667 54.5 215 54.5h848z" />
    <glyph glyph-name="endash" unicode="&#x2013;" horiz-adv-x="1024" 
d="M0 502v104h1024v-104h-1024z" />
    <glyph glyph-name="emdash" unicode="&#x2014;" horiz-adv-x="2048" 
d="M0 606h2048v-104h-2048v104z" />
    <glyph glyph-name="quoteleft" unicode="&#x2018;" horiz-adv-x="664" 
d="M414 1288v-207.001h-164v250c0 50.667 14.167 89.667 42.5 117s68.833 41 121.5 41l-1 -88c-24.667 -2.66699 -42 -9.16699 -52 -19.5s-15 -27.166 -15 -50.499v-43h68z" />
    <glyph glyph-name="quoteright" unicode="&#x2019;" horiz-adv-x="664" 
d="M250 1282v207h164v-250c0 -50.667 -14.167 -89.667 -42.5 -117s-68.833 -41 -121.5 -41v88c24 2 41.167 8.33301 51.5 19s15.5 27.667 15.5 51v43h-67z" />
    <glyph glyph-name="quotesinglbase" unicode="&#x201a;" horiz-adv-x="664" 
d="M250 0v207h164v-250c0 -50.667 -14.167 -89.667 -42.5 -117s-68.833 -41 -121.5 -41v88c24 2 41.167 8.33301 51.5 19s15.5 27.667 15.5 51v43h-67z" />
    <glyph glyph-name="quotedblleft" unicode="&#x201c;" horiz-adv-x="1006" 
d="M758 1288l-0.000976562 -207.001h-166v250c0 50.667 14.333 89.667 43 117s69.667 41 123 41l-1 -88c-25.333 -2.66699 -43.166 -9.16699 -53.499 -19.5s-15.5 -27.166 -15.5 -50.499v-43h70zM411.999 1288v-207.001h-164v250c0 50.667 14 89.667 42 117
s68.667 41 122 41l-1 -88c-24.667 -2.66699 -42 -9.16699 -52 -19.5s-15 -27.166 -15 -50.499v-43h68z" />
    <glyph glyph-name="quotedblright" unicode="&#x201d;" horiz-adv-x="1006" 
d="M248 1282v207.001h164v-250c0 -50.667 -14.167 -89.667 -42.5 -117s-68.833 -41 -121.5 -41v88c24.667 2.66699 42 9.16699 52 19.5s15 27.166 15 50.499v43h-67zM592 1282v207h164v-250c0 -50.667 -14.167 -89.667 -42.5 -117s-68.833 -41 -121.5 -41v88
c24 2 41.167 8.33301 51.5 19s15.5 27.667 15.5 51v43h-67z" />
    <glyph glyph-name="quotedblbase" unicode="&#x201e;" horiz-adv-x="1006" 
d="M248 0v207h164v-250c0 -50.667 -14.167 -89.667 -42.5 -117s-68.833 -41 -121.5 -41v88c24 2 41.167 8.33301 51.5 19s15.5 27.667 15.5 51v43h-67zM592 0v207h164v-250c0 -50.667 -14.167 -89.667 -42.5 -117s-68.833 -41 -121.5 -41v88c24 2 41.167 8.33301 51.5 19
s15.5 27.667 15.5 51v43h-67z" />
    <glyph glyph-name="dagger" unicode="&#x2020;" horiz-adv-x="1024" 
d="M590 1489v-399h295v-142h-295v-948h-156v948h-295v142h295v399h156z" />
    <glyph glyph-name="daggerdbl" unicode="&#x2021;" horiz-adv-x="1024" 
d="M590 1489v-340h295v-141h-295v-525h295v-141h-295v-342h-156v342h-295v141h295v525h-295v141h295v340h156z" />
    <glyph glyph-name="bullet" unicode="&#x2022;" horiz-adv-x="1208" 
d="M307 762c0 82 28.999 151.666 86.999 208.999s128 86 210 86c81.333 0 150.833 -28.833 208.5 -86.5s86.5 -127.167 86.5 -208.5s-29.167 -151.166 -87.5 -209.499s-128.166 -87.5 -209.499 -87.5c-82 0 -151.667 29 -209 87s-86 128 -86 210z" />
    <glyph glyph-name="ellipsis" unicode="&#x2026;" horiz-adv-x="2048" 
d="M129 0v217h174v-217h-174zM811 0v217h174v-217h-174zM1495 0v217h174v-217h-174z" />
    <glyph glyph-name="perthousand" unicode="&#x2030;" horiz-adv-x="2736" 
d="M2277 117h74c74 0 122.5 12.333 145.5 37s34.5 84 34.5 178v252c0 94.667 -11.833 154.5 -35.5 179.5s-71.834 37.5 -144.5 37.5h-74c-72.667 0 -120.834 -12.5 -144.5 -37.5c-23.667 -25 -35.5 -84.833 -35.5 -179.5v-252c0 -94.667 11.333 -154.167 34 -178.5
s71.334 -36.5 146 -36.5zM2269 -18c-113.333 0 -192.5 23.333 -237.5 70s-67.5 129.667 -67.5 249v313c0 118.667 22.667 201.667 68 249s124.333 71 237 71h90c112.667 0 191.334 -23.333 236 -70c44.667 -46.667 67 -130 67 -250v-313
c0 -120 -22.167 -203.167 -66.5 -249.5s-123.166 -69.5 -236.5 -69.5h-90zM379 555c-114 0 -193.335 23.333 -238.002 70s-67 129 -67 247v316c0 118.667 22.667 201.5 68 248.5s124.333 70.5 237 70.5h90c112.667 0 191.334 -23.167 236.001 -69.5s67 -129.5 67 -249.5
v-316c0 -120 -22.167 -202.833 -66.5 -248.5s-123.166 -68.5 -236.499 -68.5h-90zM1399 117h71.001c75.333 0 124.666 12.5 147.999 37.5s35 84.167 35 177.5v252c0 94 -12 153.667 -36 179s-73 38 -147 38h-71c-73.333 0 -122 -12.667 -146 -38s-36 -85 -36 -179v-252
c0 -93.333 11.5 -152.5 34.5 -177.5s72.167 -37.5 147.5 -37.5zM386.999 690h74.001c74 0 122.5 12.333 145.5 37s34.5 84 34.5 178v252c0 94.667 -11.833 154.5 -35.5 179.5s-71.834 37.5 -144.501 37.5h-74c-73.333 0 -122 -12.667 -146 -38s-36 -85 -36 -179v-252
c0 -93.333 11.5 -152.5 34.5 -177.5s72.167 -37.5 147.5 -37.5zM1389 -18c-113.333 0 -192.333 23.333 -237 70s-67 129.667 -67 249v313c0 119.333 22.5 202.5 67.5 249.5s123.833 70.5 236.5 70.5h90c112.667 0 191.667 -23.333 237 -70s68 -130 68 -250v-313
c0 -120 -22.5 -203.167 -67.5 -249.5s-124.167 -69.5 -237.5 -69.5h-90zM594 -18l526 1525h142l-527 -1525h-141z" />
    <glyph glyph-name="guilsinglleft" unicode="&#x2039;" horiz-adv-x="631" 
d="M516 213h-172l-246 313l246 314h172l-248 -314z" />
    <glyph glyph-name="guilsinglright" unicode="&#x203a;" horiz-adv-x="631" 
d="M115 213l247 313l-247 314h172l245 -314l-245 -313h-172z" />
    <glyph glyph-name="franc" unicode="&#x20a3;" horiz-adv-x="2173" 
d="M180 0v1489h930v-158h-766v-487h743v-152h-743v-692h-164zM1374 0l0.000976562 1053h151v-144c22 54.667 56.333 94.667 103 120s108.667 38 186 38c114.667 0 195.167 -27.667 241.5 -83s69.5 -153.333 69.5 -294v-8h-157v31c0 84 -13.333 140.5 -40 169.5
s-77 43.5 -151 43.5c-86.667 0 -149.334 -24.5 -188.001 -73.5s-58 -129.167 -58 -240.5v-612h-157z" />
    <glyph glyph-name="trademark" unicode="&#x2122;" horiz-adv-x="1706" 
d="M938 1454l166 -422l156 422h116v-530h-71v467l-177 -467h-49l-186 467v-467h-72v530h117zM694 1454v-57h-172v-473h-82v473h-176v57h430z" />
    <glyph glyph-name="partialdiff" unicode="&#x2202;" horiz-adv-x="1034" 
d="M752 592c8 55.333 14 108.667 18 160s6 101 6 149c0 105.333 -13.333 186 -40 242s-65 84 -115 84c-33.333 0 -69.333 -22.833 -108 -68.5s-73 -68.5 -103 -68.5c-20.667 0 -38.167 6.66699 -52.5 20s-21.5 29 -21.5 47c0 41.333 21.167 77 63.5 107
s94.166 45 155.499 45c110 0 198 -50.167 264 -150.5s99 -235.833 99 -406.5c0 -222.667 -45.333 -408.167 -136 -556.5s-201.667 -222.5 -333 -222.5c-95.333 0 -173.166 35.667 -233.499 107s-90.5 164 -90.5 278c0 119.333 36.333 220.833 109 304.5s160 125.5 262 125.5
c65.333 0 118.833 -16 160.5 -48s73.5 -81.333 95.5 -148zM711 463.001c0 85.333 -15 149.667 -45 193s-74.667 65 -134 65c-75.333 0 -137.5 -41.5 -186.5 -124.5s-73.5 -190.5 -73.5 -322.5c0 -84 14.833 -146.833 44.5 -188.5s74.5 -62.5 134.5 -62.5
c74.667 0 136.667 41.833 186 125.5s74 188.5 74 314.5z" />
    <glyph glyph-name="Delta" unicode="&#x2206;" horiz-adv-x="1346" 
d="M1139 139l-467 1186l-465 -1186h932zM766 1473l590 -1473h-1366l590 1473h186z" />
    <glyph glyph-name="product" unicode="&#x220f;" horiz-adv-x="1509" 
d="M160 1473h1188v-1866h-168v1718h-852v-1718h-168v1866z" />
    <glyph glyph-name="summation" unicode="&#x2211;" horiz-adv-x="1317" 
d="M49 1473h1223v-144h-1014l705 -766l-740 -813h1057v-143h-1266v133l744 821l-709 772v140z" />
    <glyph glyph-name="minus" unicode="&#x2212;" horiz-adv-x="1706" 
d="M1452 659v-98h-1198v98h1198z" />
    <glyph glyph-name="fraction" unicode="&#x2215;" horiz-adv-x="342" 
d="M-342 -18l868 1525h156l-866 -1525h-158z" />
    <glyph glyph-name="periodcentered" unicode="&#x2219;" horiz-adv-x="692" 
d="M227 795c0 32.667 11.667 60.5 35 83.5s51.333 34.5 84 34.5s60.667 -11.5 84 -34.5s35 -50.833 35 -83.5s-11.5 -60.334 -34.5 -83.001s-51.167 -34 -84.5 -34c-32.667 0 -60.667 11.333 -84 34s-35 50.334 -35 83.001z" />
    <glyph glyph-name="radical" unicode="&#x221a;" horiz-adv-x="1276" 
d="M1276 1636v-71h-125l-594 -1606h-41l-328 899l-114 -39l-19 58l246 86l272 -746l525 1419h178z" />
    <glyph glyph-name="infinity" unicode="&#x221e;" horiz-adv-x="1706" 
d="M897 559c34.667 -66.667 75.334 -116.501 122.001 -149.501s99.667 -49.5 159 -49.5c70.667 0 128.5 25 173.5 75s67.5 114 67.5 192c0 75.333 -20.833 137.833 -62.5 187.5s-93.834 74.5 -156.501 74.5c-57.333 0 -109 -24.667 -155 -74s-95.333 -134.666 -148 -255.999
zM811 667.999c-34.667 66 -75.166 115.168 -121.499 147.501s-99.5 48.5 -159.5 48.5c-70.667 0 -128.5 -24.833 -173.5 -74.5s-67.5 -112.834 -67.5 -189.501c0 -74.667 21 -137 63 -187s94 -75 156 -75c58 0 110.167 25 156.5 75s95.166 135 146.499 255zM838.001 721
c48 96 97.665 164.67 148.998 206.003s112 62 182 62c82.667 0 154.334 -35.833 215.001 -107.5s91 -160.167 91 -265.5c0 -112.667 -27.167 -203.834 -81.5 -273.501s-124.833 -104.5 -211.5 -104.5c-63.333 0 -119.333 20.167 -168 60.5s-97.334 108.166 -146.001 203.499
c-47.333 -92.667 -96.666 -159.834 -147.999 -201.501s-109 -62.5 -173 -62.5c-88 0 -162.333 35.5 -223 106.5s-91 160.167 -91 267.5c0 112.667 27.167 203.667 81.5 273s124.833 104 211.5 104c64.667 0 121.834 -21.333 171.501 -64s96.5 -110.667 140.5 -204z" />
    <glyph glyph-name="integral" unicode="&#x222b;" horiz-adv-x="985" 
d="M293 -272c69.333 0 108.333 237.665 117 712.998c1.33301 84.667 2.66602 150 3.99902 196c7.33301 324 40 556.833 98 698.5s147.333 212.5 268 212.5c46.667 0 84.667 -12.333 114 -37s44 -56.667 44 -96c0 -32 -9.5 -57.333 -28.5 -76s-45.167 -28 -78.5 -28
c-52 0 -86.333 23.167 -103 69.5s-28 69.5 -34 69.5c-70 0 -108.667 -207.667 -116 -623c-2.66699 -123.333 -5 -219.666 -7 -288.999c-10 -331.333 -43.667 -565.666 -101 -702.999s-146.333 -206 -267 -206c-46 0 -83.833 12 -113.5 36s-44.5 54.333 -44.5 91
c0 34 10.333 61 31 81s48 30 82 30c24 0 44.5 -5.5 61.5 -16.5s30.5 -28.167 40.5 -51.5c2.66699 -6 5 -17 7 -33c2.66699 -25.333 11.334 -38 26.001 -38z" />
    <glyph glyph-name="approxequal" unicode="&#x2248;" horiz-adv-x="1706" 
d="M1530 469c-70.667 -49.333 -137.664 -85.833 -200.997 -109.5s-125.333 -35.5 -186 -35.5c-67.333 0 -164.333 23.167 -291 69.5s-222.334 69.5 -287.001 69.5c-54.667 0 -111.667 -12.167 -171 -36.5s-131.333 -65.5 -216 -123.5v111
c71.333 49.333 138.666 85.833 201.999 109.5s125 35.5 185 35.5c72.667 0 172.167 -22.833 298.5 -68.5s219.5 -68.5 279.5 -68.5c57.333 0 115.666 11.833 174.999 35.5s130 64.5 212 122.5v-111zM1530 807c-69.333 -49.333 -135.667 -85.833 -199 -109.5
s-126 -35.5 -188 -35.5c-68.667 0 -166 23.167 -292 69.5s-221.333 69.5 -286 69.5c-54.667 0 -111.667 -12.167 -171 -36.5s-131.333 -65.5 -216 -123.5v113c70 48.667 137 85 201 109s126 36 186 36c72.667 0 172.167 -23.167 298.5 -69.5s219.5 -69.5 279.5 -69.5
c56 0 113 11.5 171 34.5s130 64.167 216 123.5v-111z" />
    <glyph glyph-name="notequal" unicode="&#x2260;" horiz-adv-x="1706" 
d="M1288 1110l-205 -264h369v-96h-432l-215 -277h647v-98h-709l-254 -324l-73 60l205 264h-367v98h428l215 277h-643v96h707l253 323z" />
    <glyph glyph-name="lessequal" unicode="&#x2264;" horiz-adv-x="1706" 
d="M1442 139v-98h-1178v98h1178zM1442 1075l-1010 -338l1010 -336v-106l-1178 401v84l1178 402v-107z" />
    <glyph glyph-name="greaterequal" unicode="&#x2265;" horiz-adv-x="1706" 
d="M1442 139v-98h-1178v98h1178zM1442 780v-84l-1178 -401v106l1010 336l-1010 338v107z" />
    <glyph glyph-name="lozenge" unicode="&#x25ca;" horiz-adv-x="1012" 
d="M506 1409l-385 -817l385 -825l385 825zM506 1653l500 -1061l-500 -1069l-500 1069z" />
    <glyph glyph-name="apple" unicode="&#xf000;" horiz-adv-x="1618" 
d="M836 1216c-0.666992 4 -1.16699 8.66895 -1.5 14.002s-0.5 13 -0.5 23c0 82.667 31.667 159.167 95 229.5s142 114.166 236 131.499c0.666992 -6.66699 1.16699 -14.334 1.5 -23.001s0.5 -21.667 0.5 -39c0 -87.333 -34.5 -165.5 -103.5 -234.5
s-136.833 -103.5 -203.5 -103.5h-8c-2 0 -4.5 0.333008 -7.5 1s-5.83301 1 -8.5 1zM1505 403.002c-76 -164.667 -144.335 -278.835 -205.002 -342.502s-128.667 -95.5 -204 -95.5c-33.333 0 -77.166 11 -131.499 33s-95.166 33 -122.499 33c-30 0 -73.667 -11 -131 -33
s-99.666 -33 -126.999 -33c-42.667 0 -85.5 14.667 -128.5 44s-86.167 73.333 -129.5 132c-68 93.333 -120.5 191.833 -157.5 295.5s-55.5 203.834 -55.5 300.501c0 146 41.667 264.833 125 356.5s191 137.5 323 137.5c45.333 0 97 -11.333 155 -34s99.333 -34 124 -34
c22.667 0 63.167 11.333 121.5 34s109.166 34 152.499 34c74 0 140.333 -13.167 199 -39.5s112 -67.166 160 -122.499c-68 -43.333 -118.5 -91.833 -151.5 -145.5s-49.5 -114.5 -49.5 -182.5c0 -75.333 20 -142 60 -200s97.667 -104 173 -138z" />
    <glyph glyph-name="fi" unicode="&#xf001;" horiz-adv-x="1151" 
d="M831 1305v176h158v-176h-158zM831 0v1053h158v-1053h-158zM47 920v132.998h147c0 8 -0.166992 17.167 -0.5 27.5s-0.5 24.833 -0.5 43.5c0 134 23.5 228.333 70.5 283s128.5 82 244.5 82c30 0 59.333 -0.666992 88 -2s57.334 -3.33301 86.001 -6v-142
c-8.66699 0.666992 -20.667 1.33398 -36 2.00098c-46 1.33301 -77.667 2 -95 2c-80.667 0 -134.334 -12.167 -161.001 -36.5s-40 -85.166 -40 -182.499v-71h332v-133h-332v-920h-155v920h-148z" />
    <glyph glyph-name="fl" unicode="&#xf002;" horiz-adv-x="1151" 
d="M831 0v1481h158v-1481h-158zM47 920v132.998h147c0 8 -0.166992 17.167 -0.5 27.5s-0.5 24.833 -0.5 43.5c0 134 23.5 228.333 70.5 283s128.5 82 244.5 82c30 0 59.333 -0.666992 88 -2s57.334 -3.33301 86.001 -6v-142c-8.66699 0.666992 -20.667 1.33398 -36 2.00098
c-46 1.33301 -77.667 2 -95 2c-80.667 0 -134.334 -12.167 -161.001 -36.5s-40 -85.166 -40 -182.499v-71h332v-133h-332v-920h-155v920h-148z" />
    <glyph glyph-name=".null" horiz-adv-x="0" 
 />
    <glyph glyph-name="nonmarkingreturn" horiz-adv-x="692" 
 />
    </font>
</defs>
</svg>
